<?xml version="1.0" standalone="no"?> 
<!DOCTYPE svg PUBLIC "-//W3C//DTD SVG 1.1//EN" "http://www.w3.org/Graphics/SVG/1.1/DTD/svg11.dtd" >
<svg xmlns="http://www.w3.org/2000/svg">
<defs>
  <font id="icons" horiz-adv-x="24">
    <font-face font-family="icons"
      units-per-em="1000" ascent="1000"
      descent="0" />
    <missing-glyph horiz-adv-x="0" />
    <glyph glyph-name="alert-circle"
      unicode="&#xF101;"
      horiz-adv-x="1000" d=" M500 875C292.8933333333333 875 125 707.1066666666667 125 500C125 292.8916666666667 292.8933333333333 125 500 125C707.1083333333333 125 875 292.8916666666667 875 500C875 707.1066666666667 707.1083333333333 875 500 875zM41.6666666666667 500C41.6666666666667 753.1304166666666 246.8695833333334 958.3333333333334 500 958.3333333333334C753.1291666666666 958.3333333333334 958.3333333333331 753.1304166666666 958.3333333333331 500C958.3333333333331 246.8708333333334 753.1291666666666 41.6666666666667 500 41.6666666666667C246.8695833333334 41.6666666666667 41.6666666666667 246.8708333333334 41.6666666666667 500zM500 708.3333333333334C523.0125 708.3333333333334 541.6666666666666 689.6783333333333 541.6666666666666 666.6666666666667V500C541.6666666666666 476.9875 523.0125 458.3333333333334 500 458.3333333333334C476.9875 458.3333333333334 458.3333333333333 476.9875 458.3333333333333 500V666.6666666666667C458.3333333333333 689.6783333333333 476.9875 708.3333333333334 500 708.3333333333334zM458.3333333333333 333.3333333333334C458.3333333333333 356.3458333333334 476.9875 375 500 375H500.4166666666666C523.4291666666667 375 542.0833333333333 356.3458333333334 542.0833333333333 333.3333333333334C542.0833333333333 310.3208333333335 523.4291666666667 291.6666666666668 500.4166666666666 291.6666666666668H500C476.9875 291.6666666666668 458.3333333333333 310.3208333333335 458.3333333333333 333.3333333333334z" />
    <glyph glyph-name="alert-octagon"
      unicode="&#xF102;"
      horiz-adv-x="1000" d=" M298.0370833333334 946.1295833333334C305.85125 953.9433333333334 316.4491666666667 958.3333333333334 327.5 958.3333333333334H672.5C683.55 958.3333333333334 694.15 953.9433333333334 701.9625 946.1295833333334L946.1291666666666 701.9629166666666C953.9416666666666 694.1487500000001 958.3333333333331 683.5508333333333 958.3333333333331 672.5V327.5C958.3333333333331 316.4500000000001 953.9416666666666 305.85 946.1291666666666 298.0375L701.9625 53.8708333333334C694.15 46.0583333333334 683.55 41.6666666666667 672.5 41.6666666666667H327.5C316.4491666666667 41.6666666666667 305.85125 46.0583333333334 298.0370833333334 53.8708333333334L53.8704166666667 298.0375C46.0566666666667 305.85 41.6666666666667 316.4500000000001 41.6666666666667 327.5V672.5C41.6666666666667 683.5508333333333 46.0566666666667 694.1487500000001 53.8704166666667 701.9629166666666L298.0370833333334 946.1295833333334zM344.75875 875L125 655.24125V344.7583333333335L344.75875 125H655.2416666666666L875 344.7583333333335V655.24125L655.2416666666666 875H344.75875zM500 708.3333333333334C523.0125 708.3333333333334 541.6666666666666 689.6783333333333 541.6666666666666 666.6666666666667V500C541.6666666666666 476.9875 523.0125 458.3333333333334 500 458.3333333333334C476.9875 458.3333333333334 458.3333333333333 476.9875 458.3333333333333 500V666.6666666666667C458.3333333333333 689.6783333333333 476.9875 708.3333333333334 500 708.3333333333334zM458.3333333333333 333.3333333333334C458.3333333333333 356.3458333333334 476.9875 375 500 375H500.4166666666666C523.4291666666667 375 542.0833333333333 356.3458333333334 542.0833333333333 333.3333333333334C542.0833333333333 310.3208333333335 523.4291666666667 291.6666666666668 500.4166666666666 291.6666666666668H500C476.9875 291.6666666666668 458.3333333333333 310.3208333333335 458.3333333333333 333.3333333333334z" />
    <glyph glyph-name="alert-triangle"
      unicode="&#xF103;"
      horiz-adv-x="1000" d=" M438.6666666666667 946.5391666666666C457.3874999999999 957.0791666666667 478.5083333333333 962.6159583333334 499.9916666666667 962.6159583333334C521.4749999999999 962.6159583333334 542.5958333333333 957.0791666666667 561.3166666666666 946.5391666666666C580.0374999999999 935.9995833333334 595.7249999999999 920.8129166666666 606.8666666666667 902.4445833333332L606.9875 902.2466666666666L959.9 313.0791666666667L960.2416666666666 312.5041666666667C971.1541666666666 293.6041666666668 976.9291666666666 272.1750000000001 976.9916666666666 250.3458333333333C977.0541666666666 228.5208333333334 971.3958333333334 207.0583333333334 960.5874999999997 188.0958333333333C949.7791666666666 169.1333333333335 934.1958333333334 153.3333333333334 915.3833333333334 142.2625000000001C896.5708333333333 131.1958333333335 875.1916666666666 125.2458333333334 853.3666666666666 125.0041666666667L852.9083333333333 125L146.61625 125C124.7908333333333 125.2416666666668 103.4091666666667 131.1958333333335 84.5979166666667 142.2625000000001C65.78625 153.3333333333334 50.20125 169.1333333333335 39.39275 188.0958333333333C28.58425 207.0583333333334 22.9292916666667 228.5208333333334 22.9904166666667 250.3458333333333C23.0515 272.1750000000001 28.826625 293.6041666666668 39.7410833333333 312.5041666666667L40.0795416666667 313.0791666666667L393.115 902.445C404.2570833333334 920.8133333333334 419.9458333333333 935.9995833333334 438.6666666666667 946.5391666666666zM499.9916666666667 879.2825C492.8291666666667 879.2825 485.7874999999999 877.4370833333334 479.55 873.92375C473.3374999999999 870.42625 468.1249999999999 865.3941666666667 464.4166666666667 859.3083333333334L111.7691666666667 270.5916666666667C108.2204166666667 264.35 106.3433333333333 257.2958333333334 106.3233333333333 250.1125000000001C106.3029166666667 242.8375 108.1879166666667 235.6833333333334 111.7908333333333 229.3625000000001C115.39375 223.0416666666668 120.58875 217.7750000000001 126.8591666666667 214.0875000000001C133.075 210.4291666666667 140.1320833333333 208.4458333333335 147.3404166666667 208.3333333333334H852.6416666666667C859.8499999999999 208.4458333333335 866.9083333333333 210.4291666666667 873.1208333333332 214.0875000000001C879.3916666666667 217.7750000000001 884.5875 223.0416666666668 888.1916666666666 229.3625000000001C891.7916666666665 235.6833333333334 893.6791666666666 242.8375 893.6583333333333 250.1125000000001C893.6374999999999 257.2958333333334 891.7624999999999 264.35 888.2125 270.5916666666667L535.6166666666666 859.2254166666667C535.6 859.2533333333333 535.5833333333333 859.2808333333334 535.5666666666666 859.3083333333334C531.8541666666666 865.3941666666667 526.6458333333333 870.42625 520.4333333333333 873.92375C514.1916666666666 877.4370833333334 507.15 879.2825 499.9916666666667 879.2825zM499.9916666666667 708.335C523.0041666666666 708.335 541.6583333333333 689.6800000000001 541.6583333333333 666.6683333333333V500C541.6583333333333 476.9916666666668 523.0041666666666 458.3333333333334 499.9916666666667 458.3333333333334C476.9791666666666 458.3333333333334 458.325 476.9916666666668 458.325 500V666.6683333333333C458.325 689.6800000000001 476.9791666666666 708.335 499.9916666666667 708.335zM458.325 333.3333333333334C458.325 356.3458333333334 476.9791666666666 375 499.9916666666667 375H500.4083333333333C523.4208333333332 375 542.0749999999999 356.3458333333334 542.0749999999999 333.3333333333334C542.0749999999999 310.3250000000001 523.4208333333332 291.6666666666668 500.4083333333333 291.6666666666668H499.9916666666667C476.9791666666666 291.6666666666668 458.325 310.3250000000001 458.325 333.3333333333334z" />
    <glyph glyph-name="archive"
      unicode="&#xF104;"
      horiz-adv-x="1000" d=" M958.3333333333331 916.6666666666666H41.6666666666667C16.6666666666667 916.6666666666666 0 900 0 875V666.6666666666667C0 641.6666666666667 16.6666666666667 625 41.6666666666667 625H83.3333333333333V125C83.3333333333333 100 100 83.3333333333334 125 83.3333333333334H875C900 83.3333333333334 916.6666666666666 100 916.6666666666666 125V625H958.3333333333331C983.3333333333334 625 1000 641.6666666666667 1000 666.6666666666667V875C1000 900 983.3333333333334 916.6666666666666 958.3333333333331 916.6666666666666zM833.3333333333333 166.6666666666668H166.6666666666667V625H833.3333333333333V166.6666666666668zM916.6666666666666 708.3333333333334H83.3333333333333V833.3333333333334H916.6666666666666V708.3333333333334z M416.6666666666667 458.3333333333334H583.3333333333333C608.3333333333333 458.3333333333334 625 475 625 500S608.3333333333333 541.6666666666667 583.3333333333333 541.6666666666667H416.6666666666667C391.6666666666667 541.6666666666667 375 525 375 500S391.6666666666667 458.3333333333334 416.6666666666667 458.3333333333334z" />
    <glyph glyph-name="arrow-down-circle"
      unicode="&#xF105;"
      horiz-adv-x="1000" d=" M500 875C292.8933333333333 875 125 707.1066666666667 125 500C125 292.8916666666667 292.8933333333333 125 500 125C707.1083333333333 125 875 292.8916666666667 875 500C875 707.1066666666667 707.1083333333333 875 500 875zM41.6666666666667 500C41.6666666666667 753.1304166666666 246.8695833333334 958.3333333333334 500 958.3333333333334C753.1291666666666 958.3333333333334 958.3333333333331 753.1304166666666 958.3333333333331 500C958.3333333333331 246.8708333333334 753.1291666666666 41.6666666666667 500 41.6666666666667C246.8695833333334 41.6666666666667 41.6666666666667 246.8708333333334 41.6666666666667 500zM500 708.3333333333334C523.0125 708.3333333333334 541.6666666666666 689.6783333333333 541.6666666666666 666.6666666666667V433.925L637.2041666666667 529.4625000000001C653.475 545.7333333333333 679.8583333333333 545.7333333333333 696.1291666666666 529.4625000000001C712.4 513.1916666666666 712.4 486.8083333333334 696.1291666666666 470.5375L529.4625 303.8708333333334C513.1916666666666 287.6 486.8083333333333 287.6 470.5375 303.8708333333334L303.8704166666667 470.5375C287.59875 486.8083333333334 287.59875 513.1916666666666 303.8704166666667 529.4625000000001C320.1425 545.7333333333333 346.5241666666667 545.7333333333333 362.79625 529.4625000000001L458.3333333333333 433.925V666.6666666666667C458.3333333333333 689.6783333333333 476.9875 708.3333333333334 500 708.3333333333334z" />
    <glyph glyph-name="arrow-down-left"
      unicode="&#xF106;"
      horiz-adv-x="1000" d=" M708.3333333333333 333.3333333333334H391.6666666666667L737.5000000000001 679.1666666666667C754.1666666666666 695.8333333333334 754.1666666666666 720.8333333333334 737.5000000000001 737.5S695.8333333333334 754.1666666666667 679.1666666666669 737.5L333.3333333333333 391.6666666666668V708.3333333333334C333.3333333333333 733.3333333333333 316.6666666666667 750 291.6666666666667 750S250 733.3333333333333 250 708.3333333333334V291.6666666666668C250 266.6666666666667 266.6666666666667 250 291.6666666666667 250H708.3333333333333C733.3333333333334 250 750 266.6666666666667 750 291.6666666666668S733.3333333333334 333.3333333333334 708.3333333333333 333.3333333333334z" />
    <glyph glyph-name="arrow-down-right"
      unicode="&#xF107;"
      horiz-adv-x="1000" d=" M262.20375 737.7962500000001C278.4758333333333 754.0679166666666 304.8575 754.0679166666666 321.1295833333333 737.7962500000001L666.6666666666666 392.2583333333334V708.3333333333334C666.6666666666666 731.345 685.3208333333333 750 708.3333333333333 750C731.3458333333332 750 750 731.345 750 708.3333333333334V291.6666666666668C750 268.6541666666668 731.3458333333332 250 708.3333333333333 250H291.6666666666667C268.655 250 250 268.6541666666668 250 291.6666666666668C250 314.6791666666667 268.655 333.3333333333334 291.6666666666667 333.3333333333334H607.7416666666667L262.20375 678.8704166666666C245.9320833333334 695.1425 245.9320833333334 721.5241666666667 262.20375 737.7962500000001z" />
    <glyph glyph-name="arrow-down"
      unicode="&#xF108;"
      horiz-adv-x="1000" d=" M500 833.3333333333334C523.0125 833.3333333333334 541.6666666666666 814.6783333333333 541.6666666666666 791.6666666666667V308.9250000000001L762.2041666666667 529.4625000000001C778.4749999999999 545.7333333333333 804.8583333333333 545.7333333333333 821.1291666666666 529.4625000000001C837.4 513.1916666666666 837.4 486.8083333333334 821.1291666666666 470.5375L529.4625 178.8708333333334C513.1916666666666 162.6 486.8083333333333 162.6 470.5375 178.8708333333334L178.8704166666667 470.5375C162.59875 486.8083333333334 162.59875 513.1916666666666 178.8704166666667 529.4625000000001C195.1425 545.7333333333333 221.5241666666667 545.7333333333333 237.79625 529.4625000000001L458.3333333333333 308.9250000000001V791.6666666666667C458.3333333333333 814.6783333333333 476.9875 833.3333333333334 500 833.3333333333334z" />
    <glyph glyph-name="arrow-left-circle"
      unicode="&#xF109;"
      horiz-adv-x="1000" d=" M500 875C292.8933333333333 875 125 707.1066666666667 125 500C125 292.8916666666667 292.8933333333333 125 500 125C707.1083333333333 125 875 292.8916666666667 875 500C875 707.1066666666667 707.1083333333333 875 500 875zM41.6666666666667 500C41.6666666666667 753.1304166666666 246.8695833333334 958.3333333333334 500 958.3333333333334C753.1291666666666 958.3333333333334 958.3333333333331 753.1304166666666 958.3333333333331 500C958.3333333333331 246.8708333333334 753.1291666666666 41.6666666666667 500 41.6666666666667C246.8695833333334 41.6666666666667 41.6666666666667 246.8708333333334 41.6666666666667 500zM529.4625 696.1295833333334C545.7333333333333 679.8575000000001 545.7333333333333 653.4758333333334 529.4625 637.20375L433.925 541.6666666666667H666.6666666666666C689.6791666666666 541.6666666666667 708.3333333333333 523.0125 708.3333333333333 500C708.3333333333333 476.9875 689.6791666666666 458.3333333333334 666.6666666666666 458.3333333333334H433.925L529.4625 362.7958333333334C545.7333333333333 346.525 545.7333333333333 320.1416666666667 529.4625 303.8708333333334C513.1916666666666 287.6 486.8083333333333 287.6 470.5375 303.8708333333334L303.8704166666667 470.5375C287.59875 486.8083333333334 287.59875 513.1916666666666 303.8704166666667 529.4625000000001L470.5375 696.1295833333334C486.8083333333333 712.40125 513.1916666666666 712.40125 529.4625 696.1295833333334z" />
    <glyph glyph-name="arrow-left"
      unicode="&#xF10A;"
      horiz-adv-x="1000" d=" M529.4625 821.1295833333334C545.7333333333333 804.8575000000001 545.7333333333333 778.4758333333334 529.4625 762.20375L308.9254166666667 541.6666666666667H791.6666666666666C814.6791666666666 541.6666666666667 833.3333333333333 523.0125 833.3333333333333 500C833.3333333333333 476.9875 814.6791666666666 458.3333333333334 791.6666666666666 458.3333333333334H308.9254166666667L529.4625 237.7958333333334C545.7333333333333 221.5250000000001 545.7333333333333 195.1416666666667 529.4625 178.8708333333334C513.1916666666666 162.6 486.8083333333333 162.6 470.5375 178.8708333333334L178.8704166666667 470.5375C162.59875 486.8083333333334 162.59875 513.1916666666666 178.8704166666667 529.4625000000001L470.5375 821.1295833333334C486.8083333333333 837.40125 513.1916666666666 837.40125 529.4625 821.1295833333334z" />
    <glyph glyph-name="arrow-right-circle"
      unicode="&#xF10B;"
      horiz-adv-x="1000" d=" M500 875C292.8933333333333 875 125 707.1066666666667 125 500C125 292.8916666666667 292.8933333333333 125 500 125C707.1083333333333 125 875 292.8916666666667 875 500C875 707.1066666666667 707.1083333333333 875 500 875zM41.6666666666667 500C41.6666666666667 753.1304166666666 246.8695833333334 958.3333333333334 500 958.3333333333334C753.1291666666666 958.3333333333334 958.3333333333331 753.1304166666666 958.3333333333331 500C958.3333333333331 246.8708333333334 753.1291666666666 41.6666666666667 500 41.6666666666667C246.8695833333334 41.6666666666667 41.6666666666667 246.8708333333334 41.6666666666667 500zM470.5375 637.20375C454.2666666666667 653.4758333333334 454.2666666666667 679.8575000000001 470.5375 696.1295833333334C486.8083333333333 712.40125 513.1916666666666 712.40125 529.4625 696.1295833333334L696.1291666666666 529.4625000000001C712.4 513.1916666666666 712.4 486.8083333333334 696.1291666666666 470.5375L529.4625 303.8708333333334C513.1916666666666 287.6 486.8083333333333 287.6 470.5375 303.8708333333334C454.2666666666667 320.1416666666667 454.2666666666667 346.525 470.5375 362.7958333333334L566.075 458.3333333333334H333.3333333333333C310.3216666666667 458.3333333333334 291.6666666666667 476.9875 291.6666666666667 500C291.6666666666667 523.0125 310.3216666666667 541.6666666666667 333.3333333333333 541.6666666666667H566.075L470.5375 637.20375z" />
    <glyph glyph-name="arrow-right"
      unicode="&#xF10C;"
      horiz-adv-x="1000" d=" M470.5375 821.1295833333334C486.8083333333333 837.40125 513.1916666666666 837.40125 529.4625 821.1295833333334L821.1291666666666 529.4625000000001C837.4 513.1916666666666 837.4 486.8083333333334 821.1291666666666 470.5375L529.4625 178.8708333333334C513.1916666666666 162.6 486.8083333333333 162.6 470.5375 178.8708333333334C454.2666666666667 195.1416666666667 454.2666666666667 221.5250000000001 470.5375 237.7958333333334L691.0749999999999 458.3333333333334H208.3333333333333C185.3216666666667 458.3333333333334 166.6666666666667 476.9875 166.6666666666667 500C166.6666666666667 523.0125 185.3216666666667 541.6666666666667 208.3333333333333 541.6666666666667H691.0749999999999L470.5375 762.20375C454.2666666666667 778.4758333333334 454.2666666666667 804.8575000000001 470.5375 821.1295833333334z" />
    <glyph glyph-name="arrow-up-circle"
      unicode="&#xF10D;"
      horiz-adv-x="1000" d=" M500 875C292.8933333333333 875 125 707.1066666666667 125 500C125 292.8916666666667 292.8933333333333 125 500 125C707.1083333333333 125 875 292.8916666666667 875 500C875 707.1066666666667 707.1083333333333 875 500 875zM41.6666666666667 500C41.6666666666667 753.1304166666666 246.8695833333334 958.3333333333334 500 958.3333333333334C753.1291666666666 958.3333333333334 958.3333333333331 753.1304166666666 958.3333333333331 500C958.3333333333331 246.8708333333334 753.1291666666666 41.6666666666667 500 41.6666666666667C246.8695833333334 41.6666666666667 41.6666666666667 246.8708333333334 41.6666666666667 500zM303.8704166666667 529.4625000000001L470.5375 696.1295833333334C486.8083333333333 712.40125 513.1916666666666 712.40125 529.4625 696.1295833333334L696.1291666666666 529.4625000000001C712.4 513.1916666666666 712.4 486.8083333333334 696.1291666666666 470.5375C679.8583333333333 454.2666666666667 653.475 454.2666666666667 637.2041666666667 470.5375L541.6666666666666 566.075V333.3333333333334C541.6666666666666 310.3208333333335 523.0125 291.6666666666668 500 291.6666666666668C476.9875 291.6666666666668 458.3333333333333 310.3208333333335 458.3333333333333 333.3333333333334V566.075L362.79625 470.5375C346.5241666666667 454.2666666666667 320.1425 454.2666666666667 303.8704166666667 470.5375C287.59875 486.8083333333334 287.59875 513.1916666666666 303.8704166666667 529.4625000000001z" />
    <glyph glyph-name="arrow-up-left"
      unicode="&#xF10E;"
      horiz-adv-x="1000" d=" M250 708.3333333333334C250 731.345 268.655 750 291.6666666666667 750H708.3333333333333C731.3458333333332 750 750 731.345 750 708.3333333333334C750 685.3216666666667 731.3458333333332 666.6666666666667 708.3333333333333 666.6666666666667H392.25875L737.7958333333333 321.1291666666667C754.0666666666666 304.8583333333335 754.0666666666666 278.475 737.7958333333333 262.2041666666667C721.525 245.9333333333334 695.1416666666665 245.9333333333334 678.8708333333333 262.2041666666667L333.3333333333333 607.74125V291.6666666666668C333.3333333333333 268.6541666666668 314.6783333333333 250 291.6666666666667 250C268.655 250 250 268.6541666666668 250 291.6666666666668V708.3333333333334z" />
    <glyph glyph-name="arrow-up-right"
      unicode="&#xF10F;"
      horiz-adv-x="1000" d=" M291.6666666666667 666.6666666666667C268.655 666.6666666666667 250 685.3216666666667 250 708.3333333333334C250 731.345 268.655 750 291.6666666666667 750H708.3333333333333C731.3458333333332 750 750 731.345 750 708.3333333333334V291.6666666666668C750 268.6541666666668 731.3458333333332 250 708.3333333333333 250C685.3208333333333 250 666.6666666666666 268.6541666666668 666.6666666666666 291.6666666666668V607.74125L321.1295833333333 262.2041666666667C304.8575 245.9333333333334 278.4758333333333 245.9333333333334 262.20375 262.2041666666667C245.9320833333334 278.475 245.9320833333334 304.8583333333335 262.20375 321.1291666666667L607.7416666666667 666.6666666666667H291.6666666666667z" />
    <glyph glyph-name="arrow-up"
      unicode="&#xF110;"
      horiz-adv-x="1000" d=" M470.5375 821.1295833333334C486.8083333333333 837.40125 513.1916666666666 837.40125 529.4625 821.1295833333334L821.1291666666666 529.4625000000001C837.4 513.1916666666666 837.4 486.8083333333334 821.1291666666666 470.5375C804.8583333333333 454.2666666666667 778.4749999999999 454.2666666666667 762.2041666666667 470.5375L541.6666666666666 691.0745833333333V208.3333333333334C541.6666666666666 185.3208333333335 523.0125 166.6666666666668 500 166.6666666666668C476.9875 166.6666666666668 458.3333333333333 185.3208333333335 458.3333333333333 208.3333333333334V691.0745833333333L237.79625 470.5375C221.5241666666667 454.2666666666667 195.1425 454.2666666666667 178.8704166666667 470.5375C162.59875 486.8083333333334 162.59875 513.1916666666666 178.8704166666667 529.4625000000001L470.5375 821.1295833333334z" />
    <glyph glyph-name="at-sign"
      unicode="&#xF111;"
      horiz-adv-x="1000" d=" M304.1704166666667 914.3654166666666C397.6975 958.5635833333334 503.425 969.8235833333334 604.1625 946.3145833333334C704.9 922.805 794.7249999999999 865.9095833333333 859.0249999999999 784.87875C923.3291666666667 703.8479166666667 958.3291666666667 603.4475 958.3333333333331 500.0041666666667V458.3333333333334C958.3333333333331 414.1291666666667 940.775 371.7375000000001 909.5166666666667 340.4833333333334C878.2624999999999 309.225 835.8708333333333 291.6666666666668 791.6666666666666 291.6666666666668C747.4625 291.6666666666668 705.0708333333333 309.225 673.8166666666667 340.4833333333334C667.1999999999999 347.1 661.1958333333333 354.2125 655.8458333333333 361.7375C617.6833333333333 318.7541666666666 562.0041666666666 291.6666666666668 500 291.6666666666668C384.94125 291.6666666666668 291.6670833333333 384.9416666666667 291.6670833333333 500C291.6670833333333 615.0595833333334 384.94125 708.33375 500 708.33375C546.9 708.33375 590.1833333333333 692.8358333333333 625 666.6820833333334C625.0083333333333 689.6870833333334 643.6583333333333 708.33375 666.6666666666666 708.33375C689.6791666666666 708.33375 708.3333333333333 689.67875 708.3333333333333 666.6670833333333V458.3333333333334C708.3333333333333 436.2333333333334 717.1125 415.0375 732.7416666666666 399.4083333333334C748.3708333333333 383.7791666666667 769.5666666666666 375 791.6666666666666 375C813.7666666666667 375 834.9666666666667 383.7791666666667 850.5916666666667 399.4083333333334C866.2208333333333 415.0375 875 436.2333333333334 875 458.3333333333334V499.9958333333334C875 500 875 499.9958333333334 875 499.9958333333334C874.9958333333333 584.6333333333334 846.3583333333332 666.7804166666667 793.75 733.0779166666666C741.1374999999999 799.3758333333333 667.6458333333333 845.9266666666667 585.225 865.1616666666666C502.8041666666666 884.39625 416.2979166666666 875.18375 339.7758333333333 839.0216666666666C263.2541666666667 802.8591666666666 201.2154166666667 741.8745833333334 163.7475 665.9833333333333C126.28 590.0916666666667 115.5866666666667 503.7583333333333 133.4066666666667 421.0166666666667C151.2266666666667 338.2791666666667 196.5120833333333 264 261.8991666666667 210.2625000000001C327.28625 156.525 408.9291666666666 126.4833333333334 493.5541666666666 125.0291666666667C578.175 123.5750000000002 660.8041666666666 150.7875 728 202.2458333333334C746.2708333333333 216.2375 772.425 212.7708333333334 786.4166666666665 194.5C800.4041666666667 176.2291666666668 796.9375 150.0791666666668 778.6666666666666 136.0875000000001C696.5374999999999 73.1916666666667 595.55 39.9291666666668 492.1208333333333 41.7083333333335C388.69125 43.4875000000001 288.905 80.2000000000001 208.9875 145.8833333333335C129.07 211.5625000000001 73.7216666666667 302.3458333333333 51.94125 403.4708333333333C30.161375 504.6 43.2308333333333 610.1179166666667 89.0245833333333 702.8741666666667C134.81875 795.63 210.64375 870.1670833333334 304.1704166666667 914.3654166666666zM625 500C625 569.0375 569.0375 625.0004166666668 500 625.0004166666668C430.9666666666667 625.0004166666668 375.0004166666667 569.0375 375.0004166666667 500C375.0004166666667 430.9666666666667 430.9666666666667 375 500 375C569.0375 375 625 430.9666666666667 625 500z" />
    <glyph glyph-name="award"
      unicode="&#xF112;"
      horiz-adv-x="1000" d=" M704.1666666666665 400C783.3333333333334 462.5 833.3333333333333 558.3333333333334 833.3333333333333 666.6666666666667C833.3333333333333 850 683.3333333333333 1000 500 1000S166.6666666666667 850 166.6666666666667 666.6666666666667C166.6666666666667 558.3333333333334 216.6666666666667 462.5 295.8333333333333 400L250 45.8333333333335C245.8333333333334 29.1666666666669 254.1666666666667 12.5000000000001 266.6666666666667 4.1666666666667C279.1666666666667 -4.1666666666665 295.8333333333333 -4.1666666666665 312.5 4.1666666666667L500 116.6666666666668L687.5 4.1666666666667C700 -4.1666666666665 716.6666666666666 -4.1666666666665 733.3333333333334 4.1666666666667C745.8333333333334 12.5000000000001 754.1666666666666 29.1666666666669 750 45.8333333333335L704.1666666666665 400zM520.8333333333333 204.1666666666666C508.3333333333333 212.5 491.6666666666667 212.5 479.1666666666666 204.1666666666666L345.8333333333334 125L375 358.3333333333334C412.5 341.6666666666667 454.1666666666666 333.3333333333334 500 333.3333333333334S587.5 341.6666666666667 625 358.3333333333334L654.1666666666666 120.8333333333334L520.8333333333333 204.1666666666666zM637.5 458.3333333333334C633.3333333333334 458.3333333333334 633.3333333333334 454.1666666666667 629.1666666666667 454.1666666666667C591.6666666666666 429.1666666666668 545.8333333333334 416.6666666666668 495.8333333333334 416.6666666666668C358.3333333333334 416.6666666666668 245.8333333333334 529.1666666666667 245.8333333333334 666.6666666666667S358.3333333333334 916.6666666666666 495.8333333333334 916.6666666666666C633.3333333333334 916.6666666666666 745.8333333333334 804.1666666666666 745.8333333333334 666.6666666666667C750 579.1666666666667 704.1666666666665 504.1666666666667 637.5 458.3333333333334z" />
    <glyph glyph-name="bell-off"
      unicode="&#xF113;"
      horiz-adv-x="1000" d=" M12.203875 987.796125C28.4757083333333 1004.0679625 54.8575 1004.0679625 71.1295833333333 987.796125L289.6825 769.2433333333333C290.0833333333333 768.8583333333333 290.4754166666667 768.4658333333333 290.8595833333333 768.0658333333333L987.7958333333333 71.1291666666667C1004.0666666666666 54.8583333333335 1004.0666666666666 28.475 987.7958333333333 12.2041666666667C971.525 -4.0666666666666 945.1416666666667 -4.0666666666666 928.8708333333332 12.2041666666667L691.0749999999999 250H125C106.63875 250 90.4420833333333 262.0208333333334 85.12125 279.5916666666667C79.8570833333333 296.9791666666668 86.4666666666667 315.7458333333334 101.40375 326.0083333333335C101.54375 326.1041666666667 101.6841666666667 326.2000000000001 101.8254166666667 326.2958333333334C101.8283333333333 326.2958333333334 101.8316666666667 326.3 101.8345833333333 326.3C101.8345833333333 326.3 101.8345833333333 326.3 101.8341666666667 326.3L101.8254166666667 326.2958333333334L101.78375 326.2666666666668L101.69125 326.2041666666668L101.5391666666667 326.1L101.36625 325.9791666666667C101.3258333333333 325.9500000000001 101.3391666666667 325.9625000000001 101.40375 326.0083333333335C101.4329166666667 326.0291666666667 101.4729166666667 326.0583333333333 101.5229166666667 326.0958333333334C101.84375 326.3333333333334 102.5875 326.9000000000001 103.6966666666667 327.8250000000001C105.9141666666667 329.675 109.5966666666667 332.9541666666667 114.2833333333333 337.9000000000001C123.6345833333333 347.7708333333334 137.09625 364.4 150.9208333333333 389.7458333333334C178.4525 440.2166666666667 208.3270833333334 526.9541666666667 208.3333333333333 666.6216666666667C208.3333333333333 666.6041666666667 208.3333333333333 666.5862500000001 208.3333333333333 666.56875L250 666.6666666666667H208.3333333333333C208.3333333333333 666.6516666666666 208.3333333333333 666.6366666666668 208.3333333333333 666.6216666666667M214.555 333.3333333333334H607.7416666666667L291.5266666666667 649.5475C289.1816666666667 507.0833333333334 257.7145833333334 411.5041666666667 224.0791666666667 349.8375000000001C220.9083333333333 344.0250000000001 217.7254166666667 338.5291666666667 214.555 333.3333333333334zM214.5483333333333 726.52625L12.203875 928.8704166666666C-4.0679625 945.1425 -4.0679625 971.5242916666666 12.203875 987.796125M485.9458333333333 958.3654583333334C538.7208333333333 960.9114166666666 591.1999999999999 949.0733333333334 637.7708333333333 924.1154166666666C684.3416666666666 899.1575 723.2583333333333 862.0179166666667 750.3625 816.6629166666667C777.4708333333334 771.3079166666666 791.7458333333333 719.4420833333334 791.6666666666666 666.605L791.6624999999999 666.0008333333333C790.5999999999999 599.5970833333333 798.9458333333333 533.3791666666666 816.4458333333332 469.3125C822.5083333333333 447.1125000000001 809.4291666666667 424.2041666666667 787.2291666666666 418.1375000000001C765.0291666666667 412.0750000000001 742.1208333333333 425.1541666666667 736.0541666666666 447.3541666666667C716.5125 518.9000000000001 707.1791666666667 592.8491666666666 708.3333333333333 667.0070833333334C708.3375 704.6516666666666 698.1458333333334 741.59625 678.8291666666665 773.9129166666667C659.4708333333333 806.3091666666667 631.6708333333333 832.8375 598.4083333333333 850.6645833333333C565.1416666666667 868.4916666666667 527.6583333333333 876.9475 489.9625 875.12875C452.2666666666667 873.3104166666667 415.7695833333333 861.2858333333334 384.375 840.3395833333334C365.2325 827.5679166666666 339.36125 832.7325 326.5895833333333 851.875C313.8179166666667 871.0175 318.9825 896.88875 338.125 909.6604166666668C382.0775 938.985 433.1708333333334 955.8195833333332 485.9458333333333 958.3654583333334zM407.0095833333334 161.0416666666666C426.9166666666667 172.5875 452.4125 165.8125000000001 463.9583333333333 145.9083333333333C467.6208333333333 139.5916666666668 472.8791666666667 134.35 479.2041666666667 130.7083333333334C485.5291666666666 127.0666666666668 492.7 125.1458333333334 500 125.1458333333334C507.3 125.1458333333334 514.4708333333333 127.0666666666668 520.7958333333333 130.7083333333334C527.1208333333333 134.35 532.3791666666667 139.5916666666668 536.0416666666666 145.9083333333333C547.5875 165.8125000000001 573.0833333333333 172.5875 592.9916666666667 161.0416666666666C612.8958333333333 149.4958333333334 619.6708333333332 124 608.125 104.0916666666667C597.1375 85.1500000000001 581.3666666666667 69.4291666666667 562.3874999999999 58.4958333333334C543.4125 47.5666666666667 521.9 41.8125 500 41.8125C478.1 41.8125 456.5875 47.5666666666667 437.6125 58.4958333333334C418.6333333333334 69.4291666666667 402.8633333333334 85.1500000000001 391.875 104.0916666666667C380.3283333333333 124 387.1041666666667 149.4958333333334 407.0095833333334 161.0416666666666z" />
    <glyph glyph-name="bell"
      unicode="&#xF114;"
      horiz-adv-x="1000" d=" M293.76375 872.90625C348.4620833333333 927.6041666666666 422.6499999999999 958.3333333333334 500.0041666666666 958.3333333333334C577.3583333333333 958.3333333333334 651.5458333333333 927.6041666666666 706.2416666666666 872.90625C760.9416666666666 818.2079166666667 791.6708333333332 744.02125 791.6708333333332 666.6666666666667C791.6708333333332 526.9708333333333 821.5458333333332 440.225 849.0833333333333 389.7458333333334C862.9083333333333 364.4 876.3708333333334 347.7708333333334 885.7208333333333 337.9000000000001C890.4083333333333 332.9541666666667 894.0875 329.675 896.3083333333332 327.8250000000001C897.4166666666666 326.9000000000001 898.1583333333333 326.3333333333334 898.4791666666666 326.0958333333334C898.5291666666666 326.0583333333333 898.5708333333332 326.0291666666667 898.6 326.0083333333335C913.5375 315.7458333333334 920.1458333333331 296.9791666666668 914.8833333333334 279.5916666666667C909.5624999999998 262.0208333333334 893.3625 250 875.0041666666666 250H125.0033333333333C106.6420833333333 250 90.445 262.0208333333334 85.1245833333333 279.5916666666667C79.86 296.9791666666668 86.47 315.7458333333334 101.4070833333333 326.0083333333335C101.43625 326.0291666666667 101.4758333333333 326.0583333333333 101.52625 326.0958333333334C101.8466666666667 326.3333333333334 102.5908333333333 326.9000000000001 103.7 327.8250000000001C105.9175 329.675 109.6 332.9541666666667 114.2866666666667 337.9000000000001C123.6375 347.7708333333334 137.0995833333333 364.4 150.9241666666667 389.7458333333334C178.45875 440.225 208.3366666666667 526.9708333333333 208.3366666666667 666.6666666666667C208.3366666666667 744.0216666666666 239.0658333333334 818.2079166666667 293.76375 872.90625zM101.8283333333333 326.2916666666667C101.83125 326.2958333333334 101.8345833333333 326.3 101.8379166666667 326.3C101.8379166666667 326.3 101.8375 326.3 101.8375 326.3L101.8283333333333 326.2916666666667zM214.5583333333333 333.3333333333334H785.4499999999999C782.2791666666666 338.5291666666667 779.0958333333333 344.0250000000001 775.925 349.8375000000001C740.9583333333334 413.9416666666667 708.3375 514.6958333333334 708.3375 666.6666666666667C708.3375 721.9200000000001 686.3874999999999 774.9104166666667 647.3166666666666 813.9804166666667C608.2458333333333 853.0508333333333 555.2583333333333 875 500.0041666666666 875C444.75 875 391.7595833333333 853.0508333333333 352.6891666666666 813.9804166666667C313.6191666666667 774.9104166666667 291.67 721.9200000000001 291.67 666.6666666666667C291.67 514.6958333333334 259.0479166666667 413.9416666666667 224.0820833333334 349.8375000000001C220.9116666666666 344.0250000000001 217.72875 338.5291666666667 214.5583333333333 333.3333333333334zM407.0129166666667 161.0416666666666C426.9166666666667 172.5875 452.4166666666667 165.8125000000001 463.9625 145.9083333333333C467.625 139.5916666666668 472.8833333333333 134.35 479.2083333333333 130.7083333333334C485.5333333333332 127.0666666666668 492.7041666666666 125.1458333333334 500.0041666666666 125.1458333333334C507.3041666666666 125.1458333333334 514.475 127.0666666666668 520.8 130.7083333333334C527.125 134.35 532.3833333333333 139.5916666666668 536.0458333333333 145.9083333333333C547.5916666666667 165.8125000000001 573.0875 172.5875 592.9916666666667 161.0416666666666C612.9 149.4958333333334 619.675 124 608.1291666666666 104.0916666666667C597.1416666666667 85.1500000000001 581.3666666666667 69.4291666666667 562.3916666666667 58.4958333333334C543.4166666666666 47.5666666666667 521.9 41.8125 500.0041666666666 41.8125C478.1041666666667 41.8125 456.5916666666666 47.5666666666667 437.6125 58.4958333333334C418.6375 69.4291666666667 402.86625 85.1500000000001 391.8783333333334 104.0916666666667C380.3316666666667 124 387.1075 149.4958333333334 407.0129166666667 161.0416666666666z" />
    <glyph glyph-name="book-open"
      unicode="&#xF115;"
      horiz-adv-x="1000" d=" M916.6666666666666 916.6666666666666H666.6666666666666C612.4999999999999 916.6666666666666 558.3333333333334 895.8333333333334 520.8333333333333 854.1666666666667C512.5 850 504.1666666666666 841.6666666666667 500 833.3333333333334C495.8333333333333 841.6666666666667 487.4999999999999 850 479.1666666666666 854.1666666666667C441.6666666666667 895.8333333333334 387.5 916.6666666666666 333.3333333333333 916.6666666666666H83.3333333333333C58.3333333333333 916.6666666666666 41.6666666666667 900 41.6666666666667 875V250C41.6666666666667 225 58.3333333333333 208.3333333333334 83.3333333333333 208.3333333333334H375C395.8333333333333 208.3333333333334 416.6666666666667 200.0000000000001 433.3333333333333 183.3333333333334C450 166.6666666666668 458.3333333333333 145.8333333333334 458.3333333333333 125C458.3333333333333 100 475 83.3333333333334 500 83.3333333333334S541.6666666666666 100 541.6666666666666 125C541.6666666666666 145.8333333333334 549.9999999999999 166.6666666666668 566.6666666666666 183.3333333333334C583.3333333333333 200.0000000000001 604.1666666666666 208.3333333333334 625 208.3333333333334H916.6666666666666C941.6666666666666 208.3333333333334 958.3333333333331 225 958.3333333333331 250V875C958.3333333333331 900 941.6666666666666 916.6666666666666 916.6666666666666 916.6666666666666zM458.3333333333333 270.8333333333334C433.3333333333333 283.3333333333334 404.1666666666667 291.6666666666668 375 291.6666666666668H125V833.3333333333334H333.3333333333333C366.6666666666667 833.3333333333334 400 820.8333333333334 420.8333333333333 795.8333333333334C445.8333333333333 775 458.3333333333333 741.6666666666667 458.3333333333333 708.3333333333334V270.8333333333334zM875 291.6666666666668H625C595.8333333333334 291.6666666666668 566.6666666666666 283.3333333333334 541.6666666666666 270.8333333333334V708.3333333333334C541.6666666666666 741.6666666666667 554.1666666666666 775 579.1666666666666 795.8333333333334C600 820.8333333333334 633.3333333333333 833.3333333333334 666.6666666666666 833.3333333333334H875V291.6666666666668z" />
    <glyph glyph-name="book"
      unicode="&#xF116;"
      horiz-adv-x="1000" d=" M833.3333333333333 958.3333333333334H270.8333333333333C233.3333333333333 958.3333333333334 195.8333333333334 941.6666666666666 166.6666666666667 916.6666666666666S125 850 125 812.5V187.5C125 150.0000000000001 141.6666666666667 112.5 166.6666666666667 83.3333333333334C195.8333333333334 54.1666666666667 229.1666666666667 41.6666666666667 270.8333333333333 41.6666666666667H833.3333333333333C858.3333333333334 41.6666666666667 875 58.3333333333334 875 83.3333333333334V916.6666666666666C875 941.6666666666666 858.3333333333334 958.3333333333334 833.3333333333333 958.3333333333334zM791.6666666666666 125H270.8333333333333C254.1666666666667 125 237.5 133.3333333333334 225 141.6666666666666C216.6666666666667 154.1666666666666 208.3333333333333 170.8333333333335 208.3333333333333 187.5S216.6666666666667 220.8333333333334 225 233.3333333333335C237.5 241.6666666666668 254.1666666666667 250 270.8333333333333 250H791.6666666666666V125zM791.6666666666666 333.3333333333334H270.8333333333333C250 333.3333333333334 229.1666666666667 329.1666666666667 208.3333333333333 320.8333333333334V812.5C208.3333333333333 829.1666666666667 216.6666666666667 845.8333333333334 225 858.3333333333334S254.1666666666667 875 270.8333333333333 875H791.6666666666666V333.3333333333334z" />
    <glyph glyph-name="bookmark"
      unicode="&#xF117;"
      horiz-adv-x="1000" d=" M291.6666666666667 833.3333333333334C280.6158333333333 833.3333333333334 270.0179166666667 828.9433333333334 262.20375 821.1295833333334C254.39 813.3154166666667 250 802.7175 250 791.6666666666667V205.9666666666667L475.7833333333332 367.2375000000001C490.2708333333333 377.5875 509.7291666666666 377.5875 524.2166666666667 367.2375000000001L750 205.9666666666667V791.6666666666667C750 802.7175 745.6083333333333 813.3154166666667 737.7958333333333 821.1295833333334C729.9833333333333 828.9433333333334 719.3833333333333 833.3333333333334 708.3333333333333 833.3333333333334H291.6666666666667zM203.2783333333333 880.0550000000001C226.7204166666667 903.4970833333334 258.5145833333333 916.6666666666666 291.6666666666667 916.6666666666666H708.3333333333333C741.4833333333333 916.6666666666666 773.2791666666667 903.4970833333334 796.7208333333333 880.0550000000001C820.1625 856.6129166666667 833.3333333333333 824.81875 833.3333333333333 791.6666666666667V125C833.3333333333333 109.3916666666667 824.6125 95.0916666666667 810.7333333333332 87.9500000000001C796.8541666666666 80.8083333333334 780.15 82.0208333333334 767.45 91.0958333333333L500 282.1291666666667L232.5516666666667 91.0958333333333C219.8508333333333 82.0208333333334 203.1454166666667 80.8083333333334 189.2675 87.9500000000001C175.3895833333333 95.0916666666667 166.6666666666667 109.3916666666667 166.6666666666667 125V791.6666666666667C166.6666666666667 824.81875 179.83625 856.6129166666667 203.2783333333333 880.0550000000001z" />
    <glyph glyph-name="briefcase"
      unicode="&#xF118;"
      horiz-adv-x="1000" d=" M833.3333333333333 750H708.3333333333333V791.6666666666667C708.3333333333333 825 695.8333333333333 858.3333333333334 670.8333333333334 879.1666666666666C650 904.1666666666669 616.6666666666666 916.6666666666666 583.3333333333333 916.6666666666666H416.6666666666667C383.3333333333333 916.6666666666666 350 904.1666666666669 329.1666666666667 879.1666666666666S291.6666666666667 825 291.6666666666667 791.6666666666667V750H166.6666666666667C95.8333333333333 750 41.6666666666667 695.8333333333334 41.6666666666667 625V208.3333333333334C41.6666666666667 137.5000000000001 95.8333333333333 83.3333333333334 166.6666666666667 83.3333333333334H833.3333333333333C904.1666666666666 83.3333333333334 958.3333333333331 137.5000000000001 958.3333333333331 208.3333333333334V625C958.3333333333331 695.8333333333334 904.1666666666666 750 833.3333333333333 750zM291.6666666666667 166.6666666666668H166.6666666666667C141.6666666666667 166.6666666666668 125 183.3333333333334 125 208.3333333333334V625C125 650 141.6666666666667 666.6666666666667 166.6666666666667 666.6666666666667H291.6666666666667V166.6666666666668zM625 166.6666666666668H375V666.6666666666667H625V166.6666666666668zM625 750H375V791.6666666666667C375 804.1666666666666 379.1666666666667 812.5 387.5 820.8333333333334C395.8333333333333 829.1666666666667 404.1666666666667 833.3333333333334 416.6666666666667 833.3333333333334H583.3333333333333C595.8333333333334 833.3333333333334 604.1666666666666 829.1666666666667 612.4999999999999 820.8333333333334C620.8333333333333 812.5 625 804.1666666666666 625 791.6666666666667V750zM875 208.3333333333334C875 183.3333333333334 858.3333333333334 166.6666666666668 833.3333333333333 166.6666666666668H708.3333333333333V666.6666666666667H833.3333333333333C858.3333333333334 666.6666666666667 875 650 875 625V208.3333333333334z" />
    <glyph glyph-name="calendar"
      unicode="&#xF119;"
      horiz-adv-x="1000" d=" M333.3333333333333 958.3333333333334C356.345 958.3333333333334 375 939.6783333333332 375 916.6666666666666V875H625V916.6666666666666C625 939.6783333333332 643.6541666666666 958.3333333333334 666.6666666666666 958.3333333333334C689.6791666666666 958.3333333333334 708.3333333333333 939.6783333333332 708.3333333333333 916.6666666666666V875H791.6666666666666C860.7041666666667 875 916.6666666666666 819.0354166666667 916.6666666666666 750V166.6666666666668C916.6666666666666 97.6291666666667 860.7041666666667 41.6666666666667 791.6666666666666 41.6666666666667H208.3333333333333C139.2979166666667 41.6666666666667 83.3333333333333 97.6291666666667 83.3333333333333 166.6666666666668V750C83.3333333333333 819.0354166666667 139.2979166666667 875 208.3333333333333 875H291.6666666666667V916.6666666666666C291.6666666666667 939.6783333333332 310.3216666666667 958.3333333333334 333.3333333333333 958.3333333333334zM291.6666666666667 791.6666666666667H208.3333333333333C185.3216666666667 791.6666666666667 166.6666666666667 773.0116666666667 166.6666666666667 750V625H833.3333333333333V750C833.3333333333333 773.0120833333333 814.6791666666666 791.6666666666667 791.6666666666666 791.6666666666667H708.3333333333333V750C708.3333333333333 726.9883333333333 689.6791666666666 708.3333333333334 666.6666666666666 708.3333333333334C643.6541666666666 708.3333333333334 625 726.9883333333333 625 750V791.6666666666667H375V750C375 726.9883333333333 356.345 708.3333333333334 333.3333333333333 708.3333333333334C310.3216666666667 708.3333333333334 291.6666666666667 726.9883333333333 291.6666666666667 750V791.6666666666667zM833.3333333333333 541.6666666666667H166.6666666666667V166.6666666666668C166.6666666666667 143.6541666666668 185.32125 125 208.3333333333333 125H791.6666666666666C814.6791666666666 125 833.3333333333333 143.6541666666668 833.3333333333333 166.6666666666668V541.6666666666667z" />
    <glyph glyph-name="camera-off"
      unicode="&#xF11A;"
      horiz-adv-x="1000" d=" M958.3333333333331 0C945.8333333333331 0 937.5 4.1666666666667 929.1666666666666 12.5000000000001L858.3333333333334 83.3333333333334H125C91.6666666666667 83.3333333333334 58.3333333333333 95.8333333333334 37.5 120.8333333333334C12.5 141.6666666666666 0 175 0 208.3333333333334V666.6666666666667C0 700 12.5 733.3333333333333 37.5 754.1666666666666C58.3333333333333 779.1666666666667 91.6666666666667 791.6666666666667 125 791.6666666666667H150L12.5 929.1666666666666C-4.1666666666667 945.8333333333334 -4.1666666666667 970.8333333333334 12.5 987.5C29.1666666666667 1004.1666666666666 54.1666666666667 1004.1666666666666 70.8333333333333 987.5L433.3333333333333 625L662.5 395.8333333333334L983.3333333333334 75.0000000000001C1000 58.3333333333334 1000 33.3333333333334 983.3333333333334 16.6666666666666C979.1666666666666 4.1666666666667 970.8333333333331 0 958.3333333333331 0zM125 708.3333333333334C112.5 708.3333333333334 104.1666666666667 704.1666666666667 95.8333333333333 695.8333333333334C87.5 687.5 83.3333333333333 679.1666666666667 83.3333333333333 666.6666666666667V208.3333333333334C83.3333333333333 195.8333333333334 87.5 187.5 95.8333333333333 179.1666666666668C104.1666666666667 170.8333333333335 112.5 166.6666666666668 125 166.6666666666668H775L637.5 304.1666666666668C629.1666666666666 295.8333333333335 616.6666666666666 287.5 604.1666666666666 279.1666666666667C579.1666666666666 262.5000000000001 549.9999999999999 254.1666666666668 516.6666666666666 250C487.4999999999999 245.8333333333334 454.1666666666666 250 425 262.5000000000001C395.8333333333333 270.8333333333334 370.8333333333333 291.6666666666668 350 312.5C329.1666666666667 333.3333333333334 312.5 362.5 300 387.5000000000001C291.6666666666667 416.6666666666668 287.5 445.8333333333334 291.6666666666667 475C295.8333333333333 504.1666666666667 304.1666666666667 533.3333333333334 320.8333333333333 562.5C325 575 333.3333333333333 587.5 345.8333333333334 595.8333333333334L233.3333333333333 708.3333333333334H125zM404.1666666666667 537.5C400 533.3333333333334 395.8333333333333 525 391.6666666666667 520.8333333333334C383.3333333333333 504.1666666666667 375 487.5 375 470.8333333333334C375 454.1666666666667 375 433.3333333333334 383.3333333333333 416.6666666666668C387.5 400 400 383.3333333333334 412.5 370.8333333333334C425 358.3333333333334 441.6666666666667 345.8333333333334 458.3333333333333 341.6666666666667C475 337.5 495.8333333333333 333.3333333333334 512.5 333.3333333333334C529.1666666666666 333.3333333333334 549.9999999999999 341.6666666666667 562.5 350C566.6666666666666 354.1666666666668 575 358.3333333333334 579.1666666666666 362.5L404.1666666666667 537.5zM958.3333333333331 237.5C933.3333333333331 237.5 916.6666666666666 254.1666666666668 916.6666666666666 279.1666666666667V666.6666666666667C916.6666666666666 679.1666666666667 912.4999999999998 687.5 904.1666666666666 695.8333333333334C895.8333333333333 704.1666666666667 887.5 708.3333333333334 875 708.3333333333334H708.3333333333333C695.8333333333333 708.3333333333334 683.3333333333333 716.6666666666667 674.9999999999999 725L604.1666666666666 833.3333333333334H375C350 833.3333333333334 333.3333333333333 850 333.3333333333333 875C333.3333333333333 900 350 916.6666666666666 375 916.6666666666666H625C637.5 916.6666666666666 650 908.3333333333334 658.3333333333334 900L729.1666666666666 791.6666666666667H875C908.3333333333331 791.6666666666667 941.6666666666666 779.1666666666667 962.5 754.1666666666666C987.4999999999998 733.3333333333333 1000 700 1000 666.6666666666667V279.1666666666667C1000 254.1666666666668 983.3333333333334 237.5 958.3333333333331 237.5z" />
    <glyph glyph-name="camera"
      unicode="&#xF11B;"
      horiz-adv-x="1000" d=" M340.33125 898.1125C348.0591666666666 909.7041666666667 361.06875 916.6666666666666 375 916.6666666666666H625C638.9333333333333 916.6666666666666 651.9416666666666 909.7041666666667 659.6708333333333 898.1125L730.6333333333333 791.6666666666667H875C908.1541666666666 791.6666666666667 939.9458333333334 778.4970833333334 963.3875 755.0550000000001C986.8291666666667 731.6129166666667 1000 699.81875 1000 666.6666666666667V208.3333333333334C1000 175.1791666666667 986.8291666666667 143.3874999999999 963.3875 119.9458333333333C939.9458333333334 96.5041666666667 908.1541666666666 83.3333333333334 875 83.3333333333334H125C91.8479166666667 83.3333333333334 60.05375 96.5041666666667 36.6116666666667 119.9458333333333C13.169625 143.3874999999999 0 175.1791666666667 0 208.3333333333334V666.6666666666667C0 699.81875 13.169625 731.6129166666667 36.6116666666667 755.0550000000001C60.05375 778.4970833333334 91.8479166666667 791.6666666666667 125 791.6666666666667H269.3675L340.33125 898.1125zM397.2991666666667 833.3333333333334L326.3354166666666 726.8875C318.6075 715.2958333333333 305.5979166666667 708.3333333333334 291.6666666666667 708.3333333333334H125C113.9491666666667 708.3333333333334 103.35125 703.9433333333334 95.5370833333333 696.1295833333334C87.7233333333333 688.3154166666667 83.3333333333333 677.7175 83.3333333333333 666.6666666666667V208.3333333333334C83.3333333333333 197.2833333333334 87.7233333333333 186.6833333333334 95.5370833333333 178.8708333333334C103.35125 171.0583333333334 113.9491666666667 166.6666666666668 125 166.6666666666668H875C886.05 166.6666666666668 896.65 171.0583333333334 904.4625 178.8708333333334C912.275 186.6833333333334 916.6666666666666 197.2833333333334 916.6666666666666 208.3333333333334V666.6666666666667C916.6666666666666 677.7175 912.275 688.3154166666667 904.4625 696.1295833333334C896.65 703.9433333333334 886.05 708.3333333333334 875 708.3333333333334H708.3333333333333C694.4 708.3333333333334 681.3916666666667 715.2958333333333 673.6624999999999 726.8875L602.6999999999999 833.3333333333334H397.2991666666667zM500 583.3333333333334C430.9625 583.3333333333334 375 527.3708333333334 375 458.3333333333334C375 389.2958333333334 430.9625 333.3333333333334 500 333.3333333333334C569.0375 333.3333333333334 625 389.2958333333334 625 458.3333333333334C625 527.3708333333334 569.0375 583.3333333333334 500 583.3333333333334zM291.6666666666667 458.3333333333334C291.6666666666667 573.3916666666667 384.9408333333334 666.6666666666667 500 666.6666666666667C615.0583333333333 666.6666666666667 708.3333333333333 573.3916666666667 708.3333333333333 458.3333333333334C708.3333333333333 343.2750000000001 615.0583333333333 250 500 250C384.9408333333334 250 291.6666666666667 343.2750000000001 291.6666666666667 458.3333333333334z" />
    <glyph glyph-name="check-circle"
      unicode="&#xF11C;"
      horiz-adv-x="1000" d=" M652.625 842.7741666666667C578.7583333333333 875.6866666666667 496.2333333333333 883.8404166666667 417.3583333333334 866.01875C338.4795833333333 848.1975 267.4758333333333 805.35625 214.9354166666667 743.8841666666667C162.3954166666667 682.4120833333334 131.13375 605.6033333333334 125.8129166666667 524.9124999999999C120.4920833333333 444.2208333333334 141.3975 363.975 185.41125 296.1333333333334C229.4245833333333 228.2958333333334 294.1879166666667 176.5000000000001 370.0425 148.4791666666668C445.8958333333333 120.4541666666667 528.7791666666666 117.7000000000001 606.3249999999999 140.6291666666667C683.875 163.5583333333334 751.9333333333333 210.9375 800.35 275.7041666666668C848.7708333333333 340.475 874.9541666666665 419.1583333333333 875 500.025V538.3333333333334C875 561.3458333333333 893.6541666666667 580 916.6666666666666 580C939.6791666666666 580 958.3333333333331 561.3458333333333 958.3333333333331 538.3333333333334V500C958.275 401.1625 926.2749999999997 304.9708333333333 867.0958333333333 225.8083333333334C807.9166666666666 146.6500000000001 724.7333333333332 88.7375000000001 629.9541666666667 60.7166666666667C535.175 32.6916666666667 433.875 36.0583333333334 341.1633333333333 70.3083333333334C248.4520833333334 104.5583333333334 169.2966666666667 167.8625000000001 115.5025 250.7791666666667C61.7079166666667 333.6916666666667 36.1570833333333 431.7750000000001 42.66 530.3958333333334C49.1633333333333 629.0175 87.3720833333333 722.895 151.5879166666667 798.0275C215.80375 873.16 302.5858333333333 925.5216666666666 398.9920833333333 947.3033333333332C495.4 969.085 596.2624999999999 959.119625 686.5416666666666 918.8933333333334C707.5625 909.5275 717.0083333333333 884.895 707.6416666666667 863.8754166666668C698.2791666666667 842.8558333333333 673.6458333333333 833.4083333333333 652.625 842.7741666666667zM946.1166666666666 862.81125C962.3958333333331 846.5475 962.4083333333334 820.1658333333334 946.1458333333331 803.8858333333334L529.4791666666666 386.8041666666667C521.6666666666666 378.9833333333334 511.0666666666666 374.5875000000001 500.0124999999999 374.5833333333334C488.9583333333333 374.5791666666668 478.3541666666666 378.9708333333334 470.5375 386.7875L345.5375 511.7875C329.2658333333333 528.0583333333334 329.2658333333333 554.4416666666666 345.5375 570.7125000000001C361.8091666666667 586.985 388.19125 586.985 404.4629166666667 570.7125000000001L499.9875 475.1916666666667L887.1875 862.7820833333333C903.4541666666667 879.0620833333334 929.8333333333331 879.075 946.1166666666666 862.81125z" />
    <glyph glyph-name="check-square"
      unicode="&#xF11D;"
      horiz-adv-x="1000" d=" M208.3333333333333 833.3333333333334C197.2825 833.3333333333334 186.6845833333333 828.9433333333334 178.8704166666667 821.1295833333334C171.0566666666667 813.3154166666667 166.6666666666667 802.7175 166.6666666666667 791.6666666666667V208.3333333333334C166.6666666666667 197.2833333333334 171.0566666666667 186.6833333333334 178.8704166666667 178.8708333333334C186.6845833333333 171.0583333333334 197.2825 166.6666666666668 208.3333333333333 166.6666666666668H791.6666666666666C802.7166666666666 166.6666666666668 813.3166666666666 171.0583333333334 821.1291666666666 178.8708333333334C828.9416666666666 186.6833333333334 833.3333333333333 197.2833333333334 833.3333333333333 208.3333333333334V500C833.3333333333333 523.0125 851.9875 541.6666666666667 875 541.6666666666667C898.0124999999999 541.6666666666667 916.6666666666666 523.0125 916.6666666666666 500V208.3333333333334C916.6666666666666 175.1791666666667 903.4958333333332 143.3874999999999 880.0541666666667 119.9458333333333C856.6125000000001 96.5041666666667 824.8208333333333 83.3333333333334 791.6666666666666 83.3333333333334H208.3333333333333C175.18125 83.3333333333334 143.3870833333333 96.5041666666667 119.945 119.9458333333333C96.5029166666667 143.3874999999999 83.3333333333333 175.1791666666667 83.3333333333333 208.3333333333334V791.6666666666667C83.3333333333333 824.81875 96.5029166666667 856.6129166666667 119.945 880.0550000000001C143.3870833333333 903.4970833333334 175.18125 916.6666666666666 208.3333333333333 916.6666666666666H666.6666666666666C689.6791666666666 916.6666666666666 708.3333333333333 898.0116666666667 708.3333333333333 875C708.3333333333333 851.9883333333333 689.6791666666666 833.3333333333334 666.6666666666666 833.3333333333334H208.3333333333333zM887.2041666666667 862.79625C903.475 879.0679166666666 929.8583333333333 879.0679166666666 946.1291666666666 862.79625C962.4 846.5241666666667 962.4 820.1425 946.1291666666666 803.8704166666666L529.4625 387.2041666666667C513.1916666666666 370.9333333333334 486.8083333333333 370.9333333333334 470.5375 387.2041666666667L345.5370833333334 512.2041666666667C329.2654166666667 528.4750000000001 329.2654166666667 554.8583333333333 345.5370833333334 571.1291666666667C361.8091666666667 587.4012500000001 388.1908333333334 587.4012500000001 404.4629166666667 571.1291666666667L500 475.5916666666667L887.2041666666667 862.79625z" />
    <glyph glyph-name="check"
      unicode="&#xF11E;"
      horiz-adv-x="1000" d=" M862.7958333333333 779.4629166666666C879.0666666666666 763.1908333333333 879.0666666666666 736.8091666666667 862.7958333333333 720.5370833333334L404.4629166666667 262.2041666666667C388.1908333333334 245.9333333333334 361.8091666666667 245.9333333333334 345.5370833333334 262.2041666666667L137.20375 470.5375C120.9320833333333 486.8083333333334 120.9320833333333 513.1916666666666 137.20375 529.4625000000001C153.4758333333333 545.7333333333333 179.8575 545.7333333333333 196.1295833333333 529.4625000000001L375 350.5916666666667L803.8708333333333 779.4629166666666C820.1416666666665 795.7345833333334 846.525 795.7345833333334 862.7958333333333 779.4629166666666z" />
    <glyph glyph-name="chevron-down"
      unicode="&#xF11F;"
      horiz-adv-x="1000" d=" M220.5370833333333 654.4629166666666C236.8091666666667 670.7345833333334 263.1908333333334 670.7345833333334 279.4629166666667 654.4629166666666L500 433.925L720.5374999999999 654.4629166666666C736.8083333333333 670.7345833333334 763.1916666666667 670.7345833333334 779.4625 654.4629166666666C795.7333333333332 638.1908333333333 795.7333333333332 611.8091666666667 779.4625 595.5370833333334L529.4625 345.5375C513.1916666666666 329.2666666666668 486.8083333333333 329.2666666666668 470.5375 345.5375L220.5370833333333 595.5370833333334C204.2654166666667 611.8091666666667 204.2654166666667 638.1908333333333 220.5370833333333 654.4629166666666z" />
    <glyph glyph-name="chevron-left"
      unicode="&#xF120;"
      horiz-adv-x="1000" d=" M654.4625 779.4629166666666C670.7333333333332 763.1908333333333 670.7333333333332 736.8091666666667 654.4625 720.5370833333334L433.925 500L654.4625 279.4625000000001C670.7333333333332 263.1916666666667 670.7333333333332 236.8083333333333 654.4625 220.5375C638.1916666666666 204.2666666666668 611.8083333333333 204.2666666666668 595.5374999999999 220.5375L345.5370833333334 470.5375C329.2654166666667 486.8083333333334 329.2654166666667 513.1916666666666 345.5370833333334 529.4625000000001L595.5374999999999 779.4629166666666C611.8083333333333 795.7345833333334 638.1916666666666 795.7345833333334 654.4625 779.4629166666666z" />
    <glyph glyph-name="chevron-right"
      unicode="&#xF121;"
      horiz-adv-x="1000" d=" M345.5370833333334 779.4629166666666C361.8091666666667 795.7345833333334 388.1908333333334 795.7345833333334 404.4629166666667 779.4629166666666L654.4625 529.4625000000001C670.7333333333332 513.1916666666666 670.7333333333332 486.8083333333334 654.4625 470.5375L404.4629166666667 220.5375C388.1908333333334 204.2666666666668 361.8091666666667 204.2666666666668 345.5370833333334 220.5375C329.2654166666667 236.8083333333333 329.2654166666667 263.1916666666667 345.5370833333334 279.4625000000001L566.075 500L345.5370833333334 720.5370833333334C329.2654166666667 736.8091666666667 329.2654166666667 763.1908333333333 345.5370833333334 779.4629166666666z" />
    <glyph glyph-name="chevron-up"
      unicode="&#xF122;"
      horiz-adv-x="1000" d=" M470.5375 654.4629166666666C486.8083333333333 670.7345833333334 513.1916666666666 670.7345833333334 529.4625 654.4629166666666L779.4625 404.4625000000001C795.7333333333332 388.1916666666667 795.7333333333332 361.8083333333334 779.4625 345.5375C763.1916666666667 329.2666666666668 736.8083333333333 329.2666666666668 720.5374999999999 345.5375L500 566.075L279.4629166666667 345.5375C263.1908333333334 329.2666666666668 236.8091666666667 329.2666666666668 220.5370833333333 345.5375C204.2654166666667 361.8083333333334 204.2654166666667 388.1916666666667 220.5370833333333 404.4625000000001L470.5375 654.4629166666666z" />
    <glyph glyph-name="chevrons-down"
      unicode="&#xF123;"
      horiz-adv-x="1000" d=" M262.20375 779.4629166666666C278.4758333333333 795.7345833333334 304.8575 795.7345833333334 321.1295833333333 779.4629166666666L500 600.5920833333334L678.8708333333333 779.4629166666666C695.1416666666665 795.7345833333334 721.525 795.7345833333334 737.7958333333333 779.4629166666666C754.0666666666666 763.1908333333333 754.0666666666666 736.8091666666667 737.7958333333333 720.5370833333334L529.4625 512.2041666666667C513.1916666666666 495.9333333333334 486.8083333333333 495.9333333333334 470.5375 512.2041666666667L262.20375 720.5370833333334C245.9320833333334 736.8091666666667 245.9320833333334 763.1908333333333 262.20375 779.4629166666666zM262.20375 487.7958333333333C278.4758333333333 504.0666666666667 304.8575 504.0666666666667 321.1295833333333 487.7958333333333L500 308.9250000000001L678.8708333333333 487.7958333333333C695.1416666666665 504.0666666666667 721.525 504.0666666666667 737.7958333333333 487.7958333333333C754.0666666666666 471.525 754.0666666666666 445.1416666666668 737.7958333333333 428.8708333333334L529.4625 220.5375C513.1916666666666 204.2666666666668 486.8083333333333 204.2666666666668 470.5375 220.5375L262.20375 428.8708333333334C245.9320833333334 445.1416666666668 245.9320833333334 471.525 262.20375 487.7958333333333z" />
    <glyph glyph-name="chevrons-left"
      unicode="&#xF124;"
      horiz-adv-x="1000" d=" M487.7958333333333 737.7962500000001C504.0666666666666 721.5241666666667 504.0666666666666 695.1425 487.7958333333333 678.8704166666666L308.9254166666667 500L487.7958333333333 321.1291666666667C504.0666666666666 304.8583333333335 504.0666666666666 278.475 487.7958333333333 262.2041666666667C471.5249999999999 245.9333333333334 445.1416666666667 245.9333333333334 428.8708333333333 262.2041666666667L220.5370833333333 470.5375C204.2654166666667 486.8083333333334 204.2654166666667 513.1916666666666 220.5370833333333 529.4625000000001L428.8708333333333 737.7962500000001C445.1416666666667 754.0679166666666 471.5249999999999 754.0679166666666 487.7958333333333 737.7962500000001zM779.4625 737.7962500000001C795.7333333333332 721.5241666666667 795.7333333333332 695.1425 779.4625 678.8704166666666L600.5916666666666 500L779.4625 321.1291666666667C795.7333333333332 304.8583333333335 795.7333333333332 278.475 779.4625 262.2041666666667C763.1916666666667 245.9333333333334 736.8083333333333 245.9333333333334 720.5374999999999 262.2041666666667L512.2041666666667 470.5375C495.9333333333333 486.8083333333334 495.9333333333333 513.1916666666666 512.2041666666667 529.4625000000001L720.5374999999999 737.7962500000001C736.8083333333333 754.0679166666666 763.1916666666667 754.0679166666666 779.4625 737.7962500000001z" />
    <glyph glyph-name="chevrons-right"
      unicode="&#xF125;"
      horiz-adv-x="1000" d=" M220.5370833333333 737.7962500000001C236.8091666666667 754.0679166666666 263.1908333333334 754.0679166666666 279.4629166666667 737.7962500000001L487.7958333333333 529.4625000000001C504.0666666666666 513.1916666666666 504.0666666666666 486.8083333333334 487.7958333333333 470.5375L279.4629166666667 262.2041666666667C263.1908333333334 245.9333333333334 236.8091666666667 245.9333333333334 220.5370833333333 262.2041666666667C204.2654166666667 278.475 204.2654166666667 304.8583333333335 220.5370833333333 321.1291666666667L399.4079166666666 500L220.5370833333333 678.8704166666666C204.2654166666667 695.1425 204.2654166666667 721.5241666666667 220.5370833333333 737.7962500000001zM512.2041666666667 737.7962500000001C528.475 754.0679166666666 554.8583333333332 754.0679166666666 571.1291666666666 737.7962500000001L779.4625 529.4625000000001C795.7333333333332 513.1916666666666 795.7333333333332 486.8083333333334 779.4625 470.5375L571.1291666666666 262.2041666666667C554.8583333333332 245.9333333333334 528.475 245.9333333333334 512.2041666666667 262.2041666666667C495.9333333333333 278.475 495.9333333333333 304.8583333333335 512.2041666666667 321.1291666666667L691.0749999999999 500L512.2041666666667 678.8704166666666C495.9333333333333 695.1425 495.9333333333333 721.5241666666667 512.2041666666667 737.7962500000001z" />
    <glyph glyph-name="chevrons-up"
      unicode="&#xF126;"
      horiz-adv-x="1000" d=" M470.5375 779.4629166666666C486.8083333333333 795.7345833333334 513.1916666666666 795.7345833333334 529.4625 779.4629166666666L737.7958333333333 571.1291666666667C754.0666666666666 554.8583333333333 754.0666666666666 528.4750000000001 737.7958333333333 512.2041666666667C721.525 495.9333333333334 695.1416666666665 495.9333333333334 678.8708333333333 512.2041666666667L500 691.0745833333333L321.1295833333333 512.2041666666667C304.8575 495.9333333333334 278.4758333333333 495.9333333333334 262.20375 512.2041666666667C245.9320833333334 528.4750000000001 245.9320833333334 554.8583333333333 262.20375 571.1291666666667L470.5375 779.4629166666666zM262.20375 279.4625000000001L470.5375 487.7958333333333C486.8083333333333 504.0666666666667 513.1916666666666 504.0666666666667 529.4625 487.7958333333333L737.7958333333333 279.4625000000001C754.0666666666666 263.1916666666667 754.0666666666666 236.8083333333333 737.7958333333333 220.5375C721.525 204.2666666666668 695.1416666666665 204.2666666666668 678.8708333333333 220.5375L500 399.4083333333334L321.1295833333333 220.5375C304.8575 204.2666666666668 278.4758333333333 204.2666666666668 262.20375 220.5375C245.9320833333334 236.8083333333333 245.9320833333334 263.1916666666667 262.20375 279.4625000000001z" />
    <glyph glyph-name="clipboard"
      unicode="&#xF127;"
      horiz-adv-x="1000" d=" M837.5 837.5C816.6666666666666 862.5 783.3333333333334 875 750 875H708.3333333333333C708.3333333333333 920.8333333333334 670.8333333333334 958.3333333333334 625 958.3333333333334H375C329.1666666666667 958.3333333333334 291.6666666666667 920.8333333333334 291.6666666666667 875H250C216.6666666666667 875 183.3333333333334 862.5 162.5 837.5S125 783.3333333333334 125 750V166.6666666666668C125 133.3333333333334 137.5 100 162.5 79.1666666666666C183.3333333333334 54.1666666666667 216.6666666666667 41.6666666666667 250 41.6666666666667H750C783.3333333333334 41.6666666666667 816.6666666666666 54.1666666666667 837.5 79.1666666666666C862.5000000000001 104.1666666666667 875 133.3333333333334 875 166.6666666666668V750C875 783.3333333333334 862.4999999999999 816.6666666666666 837.5 837.5zM375 875H625V791.6666666666667H375V875zM791.6666666666666 166.6666666666668C791.6666666666666 154.1666666666666 787.4999999999999 145.8333333333334 779.1666666666666 137.5000000000001S762.5 125 750 125H250C237.5 125 229.1666666666667 129.1666666666668 220.8333333333333 137.5000000000001C212.5 145.8333333333334 208.3333333333333 154.1666666666666 208.3333333333333 166.6666666666668V750C208.3333333333333 762.5 212.5 770.8333333333334 220.8333333333333 779.1666666666667C229.1666666666667 787.5 237.5 791.6666666666667 250 791.6666666666667H291.6666666666667C291.6666666666667 745.8333333333334 329.1666666666667 708.3333333333334 375 708.3333333333334H625C670.8333333333334 708.3333333333334 708.3333333333333 745.8333333333334 708.3333333333333 791.6666666666667H750C762.5 791.6666666666667 770.8333333333333 787.5 779.1666666666666 779.1666666666667C787.4999999999999 770.8333333333334 791.6666666666666 762.5 791.6666666666666 750V166.6666666666668z" />
    <glyph glyph-name="clock"
      unicode="&#xF128;"
      horiz-adv-x="1000" d=" M500 875C292.8933333333333 875 125 707.1066666666667 125 500C125 292.8916666666667 292.8933333333333 125 500 125C707.1083333333333 125 875 292.8916666666667 875 500C875 707.1066666666667 707.1083333333333 875 500 875zM41.6666666666667 500C41.6666666666667 753.1304166666666 246.8695833333334 958.3333333333334 500 958.3333333333334C753.1291666666666 958.3333333333334 958.3333333333331 753.1304166666666 958.3333333333331 500C958.3333333333331 246.8708333333334 753.1291666666666 41.6666666666667 500 41.6666666666667C246.8695833333334 41.6666666666667 41.6666666666667 246.8708333333334 41.6666666666667 500zM500 791.6666666666667C523.0125 791.6666666666667 541.6666666666666 773.0116666666667 541.6666666666666 750V525.75L685.3 453.9333333333333C705.8833333333332 443.6416666666667 714.225 418.6166666666667 703.9333333333333 398.0333333333333C693.6416666666667 377.4500000000001 668.6166666666667 369.1083333333334 648.0333333333333 379.4000000000001L481.3666666666666 462.7333333333333C467.25 469.7916666666667 458.3333333333333 484.2166666666667 458.3333333333333 500V750C458.3333333333333 773.0116666666667 476.9875 791.6666666666667 500 791.6666666666667z" />
    <glyph glyph-name="code"
      unicode="&#xF129;"
      horiz-adv-x="1000" d=" M362.79625 779.4629166666666C379.0679166666667 763.1908333333333 379.0679166666667 736.8091666666667 362.79625 720.5370833333334L142.25875 500L362.79625 279.4625000000001C379.0679166666667 263.1916666666667 379.0679166666667 236.8083333333333 362.79625 220.5375C346.5241666666667 204.2666666666668 320.1425 204.2666666666668 303.8704166666667 220.5375L53.8704166666667 470.5375C37.5987083333333 486.8083333333334 37.5987083333333 513.1916666666666 53.8704166666667 529.4625000000001L303.8704166666667 779.4629166666666C320.1425 795.7345833333334 346.5241666666667 795.7345833333334 362.79625 779.4629166666666zM637.2041666666667 779.4629166666666C653.475 795.7345833333334 679.8583333333333 795.7345833333334 696.1291666666666 779.4629166666666L946.1291666666666 529.4625000000001C962.4 513.1916666666666 962.4 486.8083333333334 946.1291666666666 470.5375L696.1291666666666 220.5375C679.8583333333333 204.2666666666668 653.475 204.2666666666668 637.2041666666667 220.5375C620.9333333333333 236.8083333333333 620.9333333333333 263.1916666666667 637.2041666666667 279.4625000000001L857.7416666666666 500L637.2041666666667 720.5370833333334C620.9333333333333 736.8091666666667 620.9333333333333 763.1908333333333 637.2041666666667 779.4629166666666z" />
    <glyph glyph-name="columns"
      unicode="&#xF12A;"
      horiz-adv-x="1000" d=" M879.1666666666666 879.1666666666666C858.3333333333334 904.1666666666669 825 916.6666666666666 791.6666666666666 916.6666666666666H208.3333333333333C175 916.6666666666666 141.6666666666667 904.1666666666669 120.8333333333333 879.1666666666666S83.3333333333333 825 83.3333333333333 791.6666666666667V208.3333333333334C83.3333333333333 175 95.8333333333333 141.6666666666666 120.8333333333333 120.8333333333334C141.6666666666667 95.8333333333334 175 83.3333333333334 208.3333333333333 83.3333333333334H791.6666666666666C825 83.3333333333334 858.3333333333334 95.8333333333334 879.1666666666666 120.8333333333334C904.1666666666669 145.8333333333334 916.6666666666666 175 916.6666666666666 208.3333333333334V791.6666666666667C916.6666666666666 825 904.1666666666666 858.3333333333334 879.1666666666666 879.1666666666666zM458.3333333333333 166.6666666666668H208.3333333333333C195.8333333333334 166.6666666666668 187.5 170.8333333333335 179.1666666666667 179.1666666666668C170.8333333333333 187.5 166.6666666666667 195.8333333333334 166.6666666666667 208.3333333333334V791.6666666666667C166.6666666666667 804.1666666666666 170.8333333333333 812.5 179.1666666666667 820.8333333333334C187.5 829.1666666666667 195.8333333333334 833.3333333333334 208.3333333333333 833.3333333333334H458.3333333333333V166.6666666666668zM833.3333333333333 208.3333333333334C833.3333333333333 195.8333333333334 829.1666666666665 187.5 820.8333333333333 179.1666666666668S804.1666666666666 166.6666666666668 791.6666666666666 166.6666666666668H541.6666666666666V833.3333333333334H791.6666666666666C804.1666666666666 833.3333333333334 812.5 829.1666666666667 820.8333333333333 820.8333333333334C829.1666666666665 812.5 833.3333333333333 804.1666666666666 833.3333333333333 791.6666666666667V208.3333333333334z" />
    <glyph glyph-name="copy"
      unicode="&#xF12B;"
      horiz-adv-x="1000" d=" M166.6666666666667 875C155.6158333333334 875 145.0179166666667 870.61 137.20375 862.79625C129.39 854.9820833333333 125 844.3841666666667 125 833.3333333333334V458.3333333333334C125 447.2833333333334 129.39 436.6833333333334 137.20375 428.8708333333334C145.0179166666667 421.0583333333334 155.6158333333334 416.6666666666668 166.6666666666667 416.6666666666668H208.3333333333333C231.345 416.6666666666668 250 398.0125000000001 250 375C250 351.9875 231.345 333.3333333333334 208.3333333333333 333.3333333333334H166.6666666666667C133.5145833333333 333.3333333333334 101.7204166666667 346.5041666666667 78.2783333333333 369.9458333333334C54.83625 393.3875000000001 41.6666666666667 425.1833333333334 41.6666666666667 458.3333333333334V833.3333333333334C41.6666666666667 866.4854166666667 54.83625 898.2795833333333 78.2783333333333 921.7216666666666C101.7204166666667 945.16375 133.5145833333333 958.3333333333334 166.6666666666667 958.3333333333334H541.6666666666666C574.8166666666666 958.3333333333334 606.6125 945.16375 630.0541666666667 921.7216666666666C653.4958333333333 898.2795833333333 666.6666666666666 866.4854166666667 666.6666666666666 833.3333333333334V791.6666666666667C666.6666666666666 768.655 648.0125 750 625 750C601.9875 750 583.3333333333333 768.655 583.3333333333333 791.6666666666667V833.3333333333334C583.3333333333333 844.3841666666667 578.9416666666666 854.9820833333333 571.1291666666666 862.79625C563.3166666666666 870.61 552.7166666666666 875 541.6666666666666 875H166.6666666666667zM458.3333333333333 583.3333333333334C435.3208333333333 583.3333333333334 416.6666666666667 564.6791666666668 416.6666666666667 541.6666666666667V166.6666666666668C416.6666666666667 143.6541666666668 435.3208333333333 125 458.3333333333333 125H833.3333333333333C856.3458333333332 125 875 143.6541666666668 875 166.6666666666668V541.6666666666667C875 564.6791666666668 856.3458333333332 583.3333333333334 833.3333333333333 583.3333333333334H458.3333333333333zM333.3333333333333 541.6666666666667C333.3333333333333 610.7020833333333 389.2979166666667 666.6666666666667 458.3333333333333 666.6666666666667H833.3333333333333C902.3708333333332 666.6666666666667 958.3333333333331 610.7020833333333 958.3333333333331 541.6666666666667V166.6666666666668C958.3333333333331 97.6291666666667 902.3708333333332 41.6666666666667 833.3333333333333 41.6666666666667H458.3333333333333C389.2979166666667 41.6666666666667 333.3333333333333 97.6291666666667 333.3333333333333 166.6666666666668V541.6666666666667z" />
    <glyph glyph-name="corner-down-left"
      unicode="&#xF12C;"
      horiz-adv-x="1000" d=" M833.3333333333333 875C856.3458333333332 875 875 856.345 875 833.3333333333334V541.6666666666667C875 486.4125 853.0499999999998 433.4208333333334 813.9791666666666 394.3541666666667C774.9124999999999 355.2833333333333 721.9208333333333 333.3333333333334 666.6666666666666 333.3333333333334H267.25875L404.4629166666667 196.1291666666667C420.7333333333333 179.8583333333335 420.7333333333333 153.475 404.4629166666667 137.2041666666667C388.1908333333334 120.9333333333334 361.8091666666667 120.9333333333334 345.5370833333334 137.2041666666667L137.20375 345.5375C120.9320833333333 361.8083333333334 120.9320833333333 388.1916666666667 137.20375 404.4625000000001L345.5370833333334 612.7962500000001C361.8091666666667 629.0679166666666 388.1908333333334 629.0679166666666 404.4629166666667 612.7962500000001C420.7333333333333 596.5241666666667 420.7333333333333 570.1416666666667 404.4629166666667 553.8708333333334L267.25875 416.6666666666668H666.6666666666666C699.8166666666666 416.6666666666668 731.6125000000001 429.8375000000001 755.0541666666667 453.2791666666667C778.4958333333334 476.7208333333334 791.6666666666666 508.5166666666667 791.6666666666666 541.6666666666667V833.3333333333334C791.6666666666666 856.345 810.3208333333333 875 833.3333333333333 875z" />
    <glyph glyph-name="corner-down-right"
      unicode="&#xF12D;"
      horiz-adv-x="1000" d=" M166.6666666666667 875C189.6783333333333 875 208.3333333333333 856.345 208.3333333333333 833.3333333333334V541.6666666666667C208.3333333333333 508.5166666666667 221.5029166666666 476.7208333333334 244.945 453.2791666666667C268.3870833333334 429.8375000000001 300.18125 416.6666666666668 333.3333333333333 416.6666666666668H732.7416666666666L595.5374999999999 553.8708333333334C579.2666666666667 570.1416666666667 579.2666666666667 596.5241666666667 595.5374999999999 612.7962500000001C611.8083333333333 629.0679166666666 638.1916666666666 629.0679166666666 654.4625 612.7962500000001L862.7958333333333 404.4625000000001C879.0666666666666 388.1916666666667 879.0666666666666 361.8083333333334 862.7958333333333 345.5375L654.4625 137.2041666666667C638.1916666666666 120.9333333333334 611.8083333333333 120.9333333333334 595.5374999999999 137.2041666666667C579.2666666666667 153.475 579.2666666666667 179.8583333333335 595.5374999999999 196.1291666666667L732.7416666666666 333.3333333333334H333.3333333333333C278.08 333.3333333333334 225.0895833333333 355.2833333333333 186.0195833333334 394.3541666666667C146.9491666666667 433.4208333333334 125 486.4125 125 541.6666666666667V833.3333333333334C125 856.345 143.655 875 166.6666666666667 875z" />
    <glyph glyph-name="corner-left-down"
      unicode="&#xF12E;"
      horiz-adv-x="1000" d=" M394.3529166666667 813.9804166666667C433.4208333333334 853.0508333333333 486.4125 875 541.6666666666666 875H833.3333333333333C856.3458333333332 875 875 856.345 875 833.3333333333334C875 810.3216666666667 856.3458333333332 791.6666666666667 833.3333333333333 791.6666666666667H541.6666666666666C508.5166666666667 791.6666666666667 476.7208333333333 778.4970833333334 453.2791666666666 755.0550000000001C429.8375 731.6129166666667 416.6666666666667 699.81875 416.6666666666667 666.6666666666667V267.2583333333335L553.8708333333333 404.4625000000001C570.1416666666667 420.7333333333334 596.525 420.7333333333334 612.7958333333333 404.4625000000001C629.0666666666666 388.1916666666667 629.0666666666666 361.8083333333334 612.7958333333333 345.5375L404.4629166666667 137.2041666666667C388.1908333333334 120.9333333333334 361.8091666666667 120.9333333333334 345.5370833333334 137.2041666666667L137.20375 345.5375C120.9320833333333 361.8083333333334 120.9320833333333 388.1916666666667 137.20375 404.4625000000001C153.4758333333333 420.7333333333334 179.8575 420.7333333333334 196.1295833333333 404.4625000000001L333.3333333333333 267.2583333333335V666.6666666666667C333.3333333333333 721.9200000000001 355.2825000000001 774.9104166666667 394.3529166666667 813.9804166666667z" />
    <glyph glyph-name="corner-left-up"
      unicode="&#xF12F;"
      horiz-adv-x="1000" d=" M345.5370833333334 862.79625C361.8091666666667 879.0679166666666 388.1908333333334 879.0679166666666 404.4629166666667 862.79625L612.7958333333333 654.4629166666666C629.0666666666666 638.1908333333333 629.0666666666666 611.8091666666667 612.7958333333333 595.5370833333334C596.525 579.2666666666667 570.1416666666667 579.2666666666667 553.8708333333333 595.5370833333334L416.6666666666667 732.74125V333.3333333333334C416.6666666666667 300.1833333333334 429.8375 268.3875 453.2791666666666 244.9458333333334C476.7208333333333 221.5041666666666 508.5166666666667 208.3333333333334 541.6666666666666 208.3333333333334H833.3333333333333C856.3458333333332 208.3333333333334 875 189.6791666666667 875 166.6666666666668C875 143.6541666666668 856.3458333333332 125 833.3333333333333 125H541.6666666666666C486.4125 125 433.4208333333334 146.9500000000002 394.3529166666667 186.0208333333334C355.2825000000001 225.0875000000001 333.3333333333333 278.0791666666667 333.3333333333333 333.3333333333334V732.74125L196.1295833333333 595.5370833333334C179.8575 579.2666666666667 153.4758333333333 579.2666666666667 137.20375 595.5370833333334C120.9320833333333 611.8091666666667 120.9320833333333 638.1908333333333 137.20375 654.4629166666666L345.5370833333334 862.79625z" />
    <glyph glyph-name="corner-right-down"
      unicode="&#xF130;"
      horiz-adv-x="1000" d=" M125 833.3333333333334C125 856.345 143.655 875 166.6666666666667 875H458.3333333333333C513.5875 875 566.5791666666667 853.0508333333333 605.6458333333334 813.9804166666667C644.7166666666667 774.9104166666667 666.6666666666666 721.9200000000001 666.6666666666666 666.6666666666667V267.2583333333335L803.8708333333333 404.4625000000001C820.1416666666665 420.7333333333334 846.525 420.7333333333334 862.7958333333333 404.4625000000001C879.0666666666666 388.1916666666667 879.0666666666666 361.8083333333334 862.7958333333333 345.5375L654.4625 137.2041666666667C638.1916666666666 120.9333333333334 611.8083333333333 120.9333333333334 595.5374999999999 137.2041666666667L387.20375 345.5375C370.9320833333333 361.8083333333334 370.9320833333333 388.1916666666667 387.20375 404.4625000000001C403.4758333333333 420.7333333333334 429.8583333333333 420.7333333333334 446.1291666666667 404.4625000000001L583.3333333333333 267.2583333333335V666.6666666666667C583.3333333333333 699.81875 570.1624999999999 731.6129166666667 546.7208333333333 755.0550000000001C523.2791666666666 778.4970833333334 491.4833333333333 791.6666666666667 458.3333333333333 791.6666666666667H166.6666666666667C143.655 791.6666666666667 125 810.3216666666667 125 833.3333333333334z" />
    <glyph glyph-name="corner-right-up"
      unicode="&#xF131;"
      horiz-adv-x="1000" d=" M595.5374999999999 862.79625C611.8083333333333 879.0679166666666 638.1916666666666 879.0679166666666 654.4625 862.79625L862.7958333333333 654.4629166666666C879.0666666666666 638.1908333333333 879.0666666666666 611.8091666666667 862.7958333333333 595.5370833333334C846.525 579.2666666666667 820.1416666666665 579.2666666666667 803.8708333333333 595.5370833333334L666.6666666666666 732.74125V333.3333333333334C666.6666666666666 278.0791666666667 644.7166666666667 225.0875000000001 605.6458333333334 186.0208333333334C566.5791666666667 146.9500000000002 513.5875 125 458.3333333333333 125H166.6666666666667C143.655 125 125 143.6541666666668 125 166.6666666666668C125 189.6791666666667 143.655 208.3333333333334 166.6666666666667 208.3333333333334H458.3333333333333C491.4833333333333 208.3333333333334 523.2791666666666 221.5041666666666 546.7208333333333 244.9458333333334C570.1624999999999 268.3875 583.3333333333333 300.1833333333334 583.3333333333333 333.3333333333334V732.74125L446.1291666666667 595.5370833333334C429.8583333333333 579.2666666666667 403.4758333333333 579.2666666666667 387.20375 595.5370833333334C370.9320833333333 611.8091666666667 370.9320833333333 638.1908333333333 387.20375 654.4629166666666L595.5374999999999 862.79625z" />
    <glyph glyph-name="corner-up-left"
      unicode="&#xF132;"
      horiz-adv-x="1000" d=" M404.4629166666667 862.79625C420.7333333333333 846.5241666666667 420.7333333333333 820.1425 404.4629166666667 803.8704166666666L267.25875 666.6666666666667H666.6666666666666C721.9208333333333 666.6666666666667 774.9124999999999 644.7175 813.9791666666666 605.6470833333333C853.0499999999998 566.5791666666667 875 513.5875000000001 875 458.3333333333334V166.6666666666668C875 143.6541666666668 856.3458333333332 125 833.3333333333333 125C810.3208333333333 125 791.6666666666666 143.6541666666668 791.6666666666666 166.6666666666668V458.3333333333334C791.6666666666666 491.4833333333333 778.4958333333334 523.2791666666667 755.0541666666667 546.7208333333333C731.6125000000001 570.1625 699.8166666666666 583.3333333333334 666.6666666666666 583.3333333333334H267.25875L404.4629166666667 446.1291666666667C420.7333333333333 429.8583333333334 420.7333333333333 403.475 404.4629166666667 387.2041666666667C388.1908333333334 370.9333333333334 361.8091666666667 370.9333333333334 345.5370833333334 387.2041666666667L137.20375 595.5370833333334C120.9320833333333 611.8091666666667 120.9320833333333 638.1908333333333 137.20375 654.4629166666666L345.5370833333334 862.79625C361.8091666666667 879.0679166666666 388.1908333333334 879.0679166666666 404.4629166666667 862.79625z" />
    <glyph glyph-name="corner-up-right"
      unicode="&#xF133;"
      horiz-adv-x="1000" d=" M870.8333333333333 608.3333333333333C875 616.6666666666666 875 629.1666666666667 870.8333333333333 641.6666666666667C866.6666666666665 645.8333333333334 866.6666666666665 650 862.4999999999999 654.1666666666667L654.1666666666666 862.5C637.4999999999999 879.1666666666667 612.4999999999999 879.1666666666667 595.8333333333333 862.5S579.1666666666666 820.8333333333334 595.8333333333333 804.1666666666667L733.3333333333334 666.6666666666667H333.3333333333333C279.1666666666667 666.6666666666667 225 645.8333333333334 187.5 604.1666666666667C145.8333333333333 566.6666666666667 125 512.5 125 458.3333333333334V166.6666666666668C125 141.6666666666666 141.6666666666667 125 166.6666666666667 125S208.3333333333333 141.6666666666666 208.3333333333333 166.6666666666668V458.3333333333334C208.3333333333333 491.6666666666667 220.8333333333333 525 245.8333333333334 545.8333333333334C266.6666666666667 570.8333333333333 300 583.3333333333334 333.3333333333333 583.3333333333334H733.3333333333334L595.8333333333334 445.8333333333334C579.1666666666666 429.1666666666667 579.1666666666666 404.1666666666667 595.8333333333334 387.5C604.1666666666666 379.1666666666668 616.6666666666666 375 625 375S645.8333333333333 379.1666666666667 654.1666666666666 387.5L862.4999999999999 595.8333333333333C866.6666666666666 600 870.8333333333333 604.1666666666667 870.8333333333333 608.3333333333333z" />
    <glyph glyph-name="credit-card"
      unicode="&#xF134;"
      horiz-adv-x="1000" d=" M875 875H125C54.1666666666667 875 0 820.8333333333334 0 750V250C0 179.1666666666668 54.1666666666667 125 125 125H875C945.8333333333331 125 1000 179.1666666666668 1000 250V750C1000 820.8333333333334 945.8333333333331 875 875 875zM916.6666666666666 250C916.6666666666666 225 900 208.3333333333334 875 208.3333333333334H125C100 208.3333333333334 83.3333333333333 225 83.3333333333333 250V541.6666666666667H916.6666666666666V250zM916.6666666666666 625H83.3333333333333V750C83.3333333333333 775 100 791.6666666666667 125 791.6666666666667H875C900 791.6666666666667 916.6666666666666 775 916.6666666666666 750V625z" />
    <glyph glyph-name="database"
      unicode="&#xF135;"
      horiz-adv-x="1000" d=" M500 958.3333333333334C300 958.3333333333334 83.3333333333333 904.1666666666669 83.3333333333333 791.6666666666667C83.3333333333333 791.6666666666667 83.3333333333333 791.6666666666667 83.3333333333333 791.6666666666667V208.3333333333334C83.3333333333333 95.8333333333334 300 41.6666666666667 500 41.6666666666667S916.6666666666666 95.8333333333334 916.6666666666666 208.3333333333334V791.6666666666667C916.6666666666666 791.6666666666667 916.6666666666666 791.6666666666667 916.6666666666666 791.6666666666667C916.6666666666666 904.1666666666669 700 958.3333333333334 500 958.3333333333334zM833.3333333333333 208.3333333333334C833.3333333333333 187.5 729.1666666666666 125 500 125C270.8333333333333 125 166.6666666666667 187.5 166.6666666666667 208.3333333333334V395.8333333333334C245.8333333333334 354.1666666666668 375 333.3333333333334 500 333.3333333333334S754.1666666666666 354.1666666666668 833.3333333333333 395.8333333333334V208.3333333333334zM833.3333333333333 500C833.3333333333333 479.1666666666667 729.1666666666666 416.6666666666668 500 416.6666666666668C270.8333333333333 416.6666666666668 166.6666666666667 479.1666666666667 166.6666666666667 500V687.5C245.8333333333334 645.8333333333334 375 625 500 625S754.1666666666666 645.8333333333334 833.3333333333333 687.5V500zM500 708.3333333333334C283.3333333333333 708.3333333333334 166.6666666666667 770.8333333333334 166.6666666666667 791.6666666666667S283.3333333333333 875 500 875C716.6666666666666 875 833.3333333333333 812.5 833.3333333333333 791.6666666666667S716.6666666666666 708.3333333333334 500 708.3333333333334z" />
    <glyph glyph-name="download"
      unicode="&#xF136;"
      horiz-adv-x="1000" d=" M470.8333333333333 345.8333333333334C475 341.6666666666668 479.1666666666666 337.5000000000001 483.3333333333334 337.5000000000001C487.5 337.5000000000001 491.6666666666667 333.3333333333335 500.0000000000001 333.3333333333335C500.0000000000001 333.3333333333335 500.0000000000001 333.3333333333335 500.0000000000001 333.3333333333335S500.0000000000001 333.3333333333335 500.0000000000001 333.3333333333335C504.1666666666667 333.3333333333335 512.5000000000001 333.3333333333335 516.6666666666667 337.5000000000001C520.8333333333334 337.5000000000001 525 341.6666666666668 529.1666666666667 345.8333333333334L737.5000000000001 554.1666666666667C754.1666666666666 570.8333333333335 754.1666666666666 595.8333333333334 737.5000000000001 612.5S695.8333333333334 629.1666666666667 679.1666666666669 612.5L541.6666666666666 475V875C541.6666666666666 900 525 916.6666666666666 500 916.6666666666666S458.3333333333333 900 458.3333333333333 875V475L320.8333333333333 612.5C304.1666666666667 629.1666666666667 279.1666666666667 629.1666666666667 262.5 612.5S245.8333333333334 570.8333333333333 262.5 554.1666666666666L470.8333333333333 345.8333333333334z M875 416.6666666666668C849.9999999999999 416.6666666666668 833.3333333333333 400 833.3333333333333 375V208.3333333333334C833.3333333333333 195.8333333333334 829.1666666666665 187.5 820.8333333333333 179.1666666666668S804.1666666666666 166.6666666666668 791.6666666666666 166.6666666666668H208.3333333333333C195.8333333333334 166.6666666666668 187.5 170.8333333333335 179.1666666666667 179.1666666666668C170.8333333333333 187.5 166.6666666666667 195.8333333333334 166.6666666666667 208.3333333333334V375C166.6666666666667 400 150 416.6666666666668 125 416.6666666666668S83.3333333333333 400 83.3333333333333 375V208.3333333333334C83.3333333333333 175 95.8333333333333 141.6666666666666 120.8333333333333 120.8333333333334C141.6666666666667 95.8333333333334 175 83.3333333333334 208.3333333333333 83.3333333333334H791.6666666666666C825 83.3333333333334 858.3333333333334 95.8333333333334 879.1666666666666 120.8333333333334S916.6666666666666 175 916.6666666666666 208.3333333333334V375C916.6666666666666 400 900 416.6666666666668 875 416.6666666666668z" />
    <glyph glyph-name="edit-2"
      unicode="&#xF137;"
      horiz-adv-x="1000" d=" M791.6666666666666 867.84875C781.6624999999999 867.84875 771.7583333333333 865.8783333333333 762.5124999999999 862.0495833333333C753.2708333333333 858.2208333333333 744.8708333333333 852.6091666666666 737.7958333333333 845.535L183.12125 290.8583333333334L142.7183333333333 142.7166666666667L290.8625 183.1166666666667L845.5374999999999 737.79375C852.6125000000001 744.8679166666667 858.225 753.2666666666667 862.0541666666666 762.5095833333334C865.8833333333332 771.7529166666667 867.8499999999999 781.6595833333333 867.8499999999999 791.6641666666667C867.8499999999999 801.6691666666667 865.8833333333332 811.5758333333333 862.0541666666666 820.81875C858.225 830.0616666666667 852.6125000000001 838.4604166666667 845.5374999999999 845.535C838.4625 852.6091666666666 830.0666666666667 858.2208333333333 820.8208333333333 862.0495833333333C811.5791666666667 865.8783333333333 801.6708333333333 867.84875 791.6666666666666 867.84875zM730.6208333333333 939.0395833333334C749.975 947.0558333333335 770.7208333333333 951.1820833333334 791.6666666666666 951.1820833333334C812.6166666666667 951.1820833333334 833.3583333333332 947.0558333333335 852.7125 939.0395833333334C872.0666666666666 931.0229166666666 889.65 919.2729166666666 904.4625 904.4604166666666C919.275 889.6479166666667 931.025 872.0629166666666 939.0416666666666 852.7091666666666C947.0583333333332 833.3554166666667 951.1833333333332 812.6125 951.1833333333332 791.6641666666667C951.1833333333332 770.71625 947.0583333333332 749.9733333333334 939.0416666666666 730.6195833333334C931.025 711.2658333333334 919.275 693.6808333333333 904.4625 678.8683333333333L341.96375 116.3666666666667C336.83625 111.2416666666667 330.46 107.5416666666667 323.4641666666667 105.6333333333333L94.2975 43.1333333333333C79.8720833333333 39.2 64.4445833333333 43.2958333333335 53.8716666666667 53.8666666666667C43.29875 64.4416666666668 39.2015833333333 79.8666666666667 43.1358333333333 94.2958333333335L105.6358333333333 323.4625000000001C107.54375 330.4583333333334 111.2441666666667 336.8333333333334 116.3716666666667 341.9583333333334L678.8708333333333 904.4604166666666C693.6833333333333 919.2729166666666 711.2708333333333 931.0229166666666 730.6208333333333 939.0395833333334z" />
    <glyph glyph-name="edit-3"
      unicode="&#xF138;"
      horiz-adv-x="1000" d=" M750 838.3891666666667C737.6083333333333 838.3891666666667 725.725 833.4666666666667 716.9625 824.7045833333334L204.29125 312.0333333333334L182.26625 223.9333333333334L270.3654166666667 245.9583333333334L783.0374999999999 758.63C787.3749999999999 762.96875 790.8166666666667 768.1191666666666 793.1666666666666 773.7879166666667C795.5125 779.45625 796.7208333333333 785.5316666666666 796.7208333333333 791.6675C796.7208333333333 797.8029166666666 795.5125 803.8783333333333 793.1666666666666 809.5470833333334C790.8166666666667 815.2154166666667 787.3749999999999 820.36625 783.0374999999999 824.7045833333334C778.6999999999999 829.0433333333333 773.55 832.4845833333334 767.8791666666666 834.8325C762.2124999999999 837.1804166666667 756.1375 838.3891666666667 750 838.3891666666667zM658.0374999999999 883.63C682.4291666666666 908.0204166666666 715.5083333333333 921.7225 750 921.7225C767.0791666666667 921.7225 783.9916666666666 918.3583333333333 799.7708333333334 911.8225C815.55 905.2866666666666 829.8875 895.7070833333333 841.9625 883.63C854.0416666666666 871.5533333333333 863.6208333333333 857.21625 870.1541666666667 841.4375C876.6916666666667 825.6583333333333 880.0541666666667 808.7466666666667 880.0541666666667 791.6675C880.0541666666667 774.5883333333334 876.6916666666667 757.6766666666667 870.1541666666667 741.8975C863.6208333333333 726.1183333333333 854.0416666666666 711.78125 841.9625 699.7045833333334L321.1304166666667 178.8708333333334C315.7904166666667 173.5333333333334 309.0995833333333 169.7416666666667 301.7733333333333 167.9125000000001L135.1066666666667 126.2458333333334C120.9075 122.6958333333335 105.8870833333333 126.8541666666668 95.5379166666667 137.2041666666667C85.18875 147.5541666666667 81.0283333333333 162.5750000000002 84.5783333333333 176.775L126.245 343.4416666666667C128.0766666666667 350.7666666666667 131.865 357.4583333333334 137.2045833333333 362.7958333333334L658.0374999999999 883.63zM458.3333333333333 166.6666666666668C458.3333333333333 189.6791666666667 476.9875 208.3333333333334 500 208.3333333333334H875C898.0124999999999 208.3333333333334 916.6666666666666 189.6791666666667 916.6666666666666 166.6666666666668C916.6666666666666 143.6541666666668 898.0124999999999 125 875 125H500C476.9875 125 458.3333333333333 143.6541666666668 458.3333333333333 166.6666666666668z" />
    <glyph glyph-name="edit"
      unicode="&#xF139;"
      horiz-adv-x="1000" d=" M833.3333333333333 880.0558333333333C820.9416666666666 880.0558333333333 809.0583333333333 875.1333333333333 800.2958333333333 866.37125L412.6233333333334 478.7L390.59875 390.6L478.6999999999999 412.625L866.3708333333333 800.2966666666666C875.1333333333332 809.05875 880.0541666666667 820.9429166666666 880.0541666666667 833.3341666666666C880.0541666666667 845.7254166666667 875.1333333333332 857.6091666666666 866.3708333333333 866.37125C857.6083333333332 875.1333333333333 845.7249999999999 880.0558333333333 833.3333333333333 880.0558333333333zM741.3708333333333 925.2966666666666C765.7624999999999 949.6870833333334 798.8416666666666 963.3890833333334 833.3333333333333 963.3890833333334C867.8249999999999 963.3890833333334 900.9041666666666 949.6870833333334 925.2958333333333 925.2966666666666C949.6875 900.9066666666666 963.3875 867.8266666666667 963.3875 833.3341666666666C963.3875 798.84125 949.6875 765.76125 925.2958333333333 741.37125L529.4625 345.5375C524.1208333333334 340.2000000000001 517.4333333333333 336.4083333333334 510.1041666666666 334.5791666666667L343.4391666666667 292.9125000000002C329.24 289.3625000000001 314.2195833333334 293.5208333333334 303.8704166666667 303.8708333333334C293.52125 314.2208333333333 289.3608333333333 329.2416666666668 292.9108333333333 343.4416666666667L334.5775 510.1083333333333C336.4091666666667 517.4333333333334 340.1970833333334 524.125 345.5370833333334 529.4625000000001L741.3708333333333 925.2966666666666zM78.2783333333333 838.3891666666667C101.7204166666667 861.83125 133.5145833333333 875.0008333333334 166.6666666666667 875.0008333333334H458.3333333333333C481.3458333333334 875.0008333333334 500 856.3458333333333 500 833.3341666666666C500 810.3220833333334 481.3458333333334 791.6675 458.3333333333333 791.6675H166.6666666666667C155.6158333333334 791.6675 145.0179166666667 787.2775 137.20375 779.4633333333334C129.39 771.6495833333333 125 761.05125 125 750.0008333333334V166.6666666666668C125 155.6166666666667 129.39 145.0166666666667 137.20375 137.2041666666667C145.0179166666667 129.3916666666667 155.6158333333334 125 166.6666666666667 125H750C761.05 125 771.65 129.3916666666667 779.4625 137.2041666666667C787.275 145.0166666666667 791.6666666666666 155.6166666666667 791.6666666666666 166.6666666666668V458.3333333333334C791.6666666666666 481.3458333333334 810.3208333333333 500 833.3333333333333 500C856.3458333333332 500 875 481.3458333333334 875 458.3333333333334V166.6666666666668C875 133.5166666666667 861.8291666666667 101.7208333333333 838.3875 78.2791666666667C814.9458333333333 54.8375 783.1541666666666 41.6666666666667 750 41.6666666666667H166.6666666666667C133.5145833333333 41.6666666666667 101.7204166666667 54.8375 78.2783333333333 78.2791666666667C54.83625 101.7208333333333 41.6666666666667 133.5166666666667 41.6666666666667 166.6666666666668V750.0008333333334C41.6666666666667 783.1529166666667 54.83625 814.9470833333334 78.2783333333333 838.3891666666667z" />
    <glyph glyph-name="external-link"
      unicode="&#xF13A;"
      horiz-adv-x="1000" d=" M625 833.3333333333334C601.9875 833.3333333333334 583.3333333333333 851.9883333333333 583.3333333333333 875C583.3333333333333 898.0116666666667 601.9875 916.6666666666666 625 916.6666666666666H875C898.0124999999999 916.6666666666666 916.6666666666666 898.0116666666667 916.6666666666666 875V625C916.6666666666666 601.9883333333333 898.0124999999999 583.3333333333334 875 583.3333333333334C851.9875 583.3333333333334 833.3333333333333 601.9883333333333 833.3333333333333 625V774.4079166666667L446.1291666666667 387.2041666666667C429.8583333333333 370.9333333333334 403.4758333333333 370.9333333333334 387.20375 387.2041666666667C370.9320833333333 403.475 370.9320833333333 429.8583333333334 387.20375 446.1291666666667L774.4083333333333 833.3333333333334H625zM208.3333333333333 708.3333333333334C197.2825 708.3333333333334 186.6845833333333 703.9433333333334 178.8704166666667 696.1295833333334C171.0566666666667 688.3154166666667 166.6666666666667 677.7175 166.6666666666667 666.6666666666667V208.3333333333334C166.6666666666667 197.2833333333334 171.0566666666667 186.6833333333334 178.8704166666667 178.8708333333334C186.6845833333333 171.0583333333334 197.2825 166.6666666666668 208.3333333333333 166.6666666666668H666.6666666666666C677.7166666666666 166.6666666666668 688.3166666666666 171.0583333333334 696.1291666666666 178.8708333333334C703.9416666666666 186.6833333333334 708.3333333333333 197.2833333333334 708.3333333333333 208.3333333333334V458.3333333333334C708.3333333333333 481.3458333333334 726.9875 500 750 500C773.0124999999999 500 791.6666666666666 481.3458333333334 791.6666666666666 458.3333333333334V208.3333333333334C791.6666666666666 175.1791666666667 778.4958333333334 143.3874999999999 755.0541666666667 119.9458333333333C731.6125000000001 96.5041666666667 699.8208333333333 83.3333333333334 666.6666666666666 83.3333333333334H208.3333333333333C175.18125 83.3333333333334 143.3870833333333 96.5041666666667 119.945 119.9458333333333C96.5029166666667 143.3874999999999 83.3333333333333 175.1791666666667 83.3333333333333 208.3333333333334V666.6666666666667C83.3333333333333 699.81875 96.5029166666667 731.6129166666667 119.945 755.0550000000001C143.3870833333333 778.4970833333334 175.18125 791.6666666666667 208.3333333333333 791.6666666666667H458.3333333333333C481.3458333333334 791.6666666666667 500 773.0116666666667 500 750C500 726.9883333333333 481.3458333333334 708.3333333333334 458.3333333333333 708.3333333333334H208.3333333333333z" />
    </font>
</defs>
</svg>
